<?xml version="1.0" standalone="no"?>
<!DOCTYPE svg PUBLIC "-//W3C//DTD SVG 1.1//EN" "http://www.w3.org/Graphics/SVG/1.1/DTD/svg11.dtd" >
<svg>
<metadata>
Created by FontForge 20120731 at Mon Jul  1 14:24:15 2019
 By www
Copyright (c) 2014 by Georg Herold-Wildfellner. All rights reserved.
</metadata>
<defs>
<font id="PintoW00-NO_01" horiz-adv-x="402" >
  <font-face 
    font-family="PintoW00-NO_01"
    font-weight="400"
    font-stretch="condensed"
    units-per-em="1000"
    panose-1="1 0 0 0 0 0 0 0 0 0"
    ascent="800"
    descent="-200"
    x-height="693.5"
    cap-height="705"
    bbox="-9.66667 -261 1064.33 934"
    underline-thickness="50"
    underline-position="-75"
    unicode-range="U+0020-2212"
  />
<missing-glyph horiz-adv-x="500" 
d="M0 700h500v-700h-500v700zM420 650h-340l170 -255zM450 95v510l-170 -255zM420 50l-170 255l-170 -255h340zM50 95l170 255l-170 255v-510z" />
    <glyph glyph-name=".notdef" horiz-adv-x="500" 
d="M0 700h500v-700h-500v700zM420 650h-340l170 -255zM450 95v510l-170 -255zM420 50l-170 255l-170 -255h340zM50 95l170 255l-170 255v-510z" />
    <glyph glyph-name=".null" horiz-adv-x="0" 
 />
    <glyph glyph-name="nonmarkingreturn" horiz-adv-x="333" 
 />
    <glyph glyph-name="space" unicode=" " horiz-adv-x="230" 
 />
    <glyph glyph-name="exclam" unicode="!" horiz-adv-x="252" 
d="M178 723q3 -1 7 -2t5 -6q1 -3 1 -11q1 -4 1 -13q0 -5 0.5 -8t1.5 -8l1 -11q0 -3 0.5 -6t0.5 -6l-2 -20l-4 -45q-1 -10 -1 -20t-1 -20q-1 -11 -3 -22.5t-4 -22.5l-11 -48q-3 -12 -4 -24t-3 -24t-3.5 -24t-2.5 -24t-0.5 -24t0.5 -24t-1 -24l-2 -24q-1 -11 -1 -21t-2 -21
q-1 -5 -1.5 -10.5t-0.5 -12.5l1 -5l1 -3q1 -2 1 -7v-2q0 -4 -3.5 -7t-6.5 -5q-8 -5 -20 -7h-1l-1 -1q-3 -2 -6.5 -2.5t-6.5 -1.5q-7 -1 -13.5 -1t-13.5 -1q-5 -1 -11 -0.5t-8 6.5q-1 4 1 11l1 4q0 19 -0.5 37.5t0.5 37.5q1 20 3 39t4 39q3 25 6.5 49.5t6.5 49.5q3 24 5 48.5
t4 49.5l2 24t3 24t2.5 24t1.5 24q1 11 2 21t2 21q1 10 1 19.5t-2 19.5q-1 5 6 11q5 3 10 5q8 3 19 1l6 -1l4 1q8 1 15 2t15 0zM101 123q3 0 6 -0.5t6 -0.5q8 0 17 -1.5t16 -6.5q4 -2 7 -5t5 -8t2 -9v-9q0 -13 -1 -27t-8 -26q0 -9 -3 -16q-4 -9 -9 -11q-4 -2 -7.5 -2h-7.5
h-17t-19 3q-5 1 -10.5 2.5t-10.5 5.5q-6 4 -9 11q-2 2 -2 5v2v10q-1 11 -1.5 22.5t-0.5 22.5q0 14 6 26q4 7 15 9q11 7 26 5v-2z" />
    <glyph glyph-name="quotedbl" unicode="&#x22;" horiz-adv-x="291" 
d="M78 717q2 -1 4.5 -1t4.5 -1q6 -2 9 -2q6 0 16 -2q6 -2 4 -8v-1q0 -7 -1 -13.5t-2 -13.5q-1 -6 -0.5 -12t0.5 -12t-0.5 -12t-0.5 -12v-24l1 -50q0 -6 1 -12l2 -12q1 -4 1.5 -7t0.5 -7q2 -2 1 -5.5t-3 -5.5q-5 -5 -14 -7l-5 -2q-3 -2 -6.5 -2.5t-6.5 -2.5l-15 -6
q-8 -4 -13 -4q-3 0 -5 4l-2 6l-2 3q-1 14 1.5 26.5t2.5 26.5q0 7 0.5 13.5t1.5 13.5q1 6 1.5 12.5t-0.5 12.5q-1 7 -1 13.5v13.5v12q0 3 0.5 5.5t1.5 5.5q4 12 4.5 25t1.5 26q-2 10 4 14q3 2 6.5 1.5t7.5 -1.5zM198 709q5 -1 9.5 -1.5t9.5 -1.5l17 -2q4 0 7 -2.5t1 -7.5
q-6 -10 -7 -21.5t-3 -22.5t-3 -22.5t-2 -22.5q-1 -6 -1 -12t-1 -12t-1 -12v-12t0.5 -11.5t1.5 -11.5t1.5 -12t-0.5 -12q-1 -5 -6 -7.5t-9 -3.5q-9 -3 -16 0q-5 2 -10.5 2.5t-11.5 0.5q-8 0 -9 6q-2 2 -1 5q1 6 1 12v12v22q0 11 1 22.5t2 22.5l1 24v12t1 12l2 23q1 5 2 10.5
t3 10.5q-2 2 0 5q1 2 2 2.5t2 2.5t3 4q3 3 7.5 2.5t8.5 -1.5z" />
    <glyph glyph-name="numbersign" unicode="#" horiz-adv-x="582" 
d="M222 705q13 -5 27.5 -6t25.5 -10l1 -1q6 -4 2 -9q-5 -7 -5 -15t-1 -16q-2 -10 -2.5 -19.5t-2.5 -19.5q-2 -11 -3.5 -21t-3.5 -21t-2.5 -21t-2.5 -21l-8 -43q24 1 48 1.5t48 0.5h9l6 27l11 47q2 6 3 11.5t3 10.5t3 9.5t2 9.5q1 11 2 21.5t4 21.5q2 5 4 10.5t4 10.5t3 9
t1 9v1q-2 7 5 7q10 1 19.5 2t19.5 2q8 1 15.5 3t15.5 2q5 0 7 -5q8 -2 7 -7v-3q0 -4 -3 -5q-2 -5 -2.5 -11t-2.5 -12l-3 -15q-1 -5 -1.5 -10t-2.5 -10q-2 -11 -4.5 -21t-5.5 -21q-3 -10 -6.5 -19t-7.5 -19t-6.5 -19.5t-4.5 -20.5l-3 -21h5q11 -2 22.5 -2h22.5q5 0 15 2t15 0
t7.5 -8.5t2.5 -13.5q4 -7 4 -17v-2q1 -4 1 -7.5t1 -7.5q2 -8 1 -12q-2 -7 -10 -5l-6 2h-48l-47 -1l-6 -34q-4 -23 -7 -46.5t-6 -46.5l69 1l19 3q5 0 7 -3q1 -3 0 -5l1 -3q0 -9 -2 -17.5t-4 -16.5q-2 -10 -2 -15l-1 -10q-2 -16 -16 -9l-1 1q-6 0 -9 1l-9 3q-4 1 -8.5 1
t-9.5 1q-11 1 -21 1t-21 1l-6 -30l-12 -45q-3 -11 -6.5 -22t-6.5 -22q-2 -6 -3 -12l-2 -12q-1 -5 -1 -10.5t-1 -10.5q-1 -6 -1.5 -11.5t-1.5 -11.5q-2 -12 -4 -19q-3 -7 -9 -10q-1 -3 -4 -4q-13 -4 -23 -5q-6 0 -12 -1t-12 -1q-3 0 -5.5 -0.5t-5.5 -0.5q-5 -2 -9 1
q-5 2 -5.5 7.5t-0.5 9.5v1q-1 3 -0.5 5.5t1.5 6.5q0 4 1 6q2 10 2 15q1 11 1.5 21t2.5 21q1 5 2 10.5t3 10.5t3.5 8.5t3.5 8.5t2.5 9t1.5 9t2 10.5t2 10.5q2 11 3.5 22t3.5 22l3 13h-25.5t-25.5 -1l-46 -2l-2 -12t-3 -12q-2 -11 -5.5 -22.5t-5.5 -22.5q-1 -6 -1.5 -12
t-2.5 -11l-6 -21q-2 -5 -3 -10.5t-2 -10.5t-1 -11t-1 -12l-3 -24q-1 -5 -1 -10t-2 -10l-1 -6v-6.5t-2 -5.5q-2 -3 -3 -5.5t-4 -4.5q-2 -2 -5.5 -1.5t-6.5 0.5l-30 6l-10 3q-2 1 -3.5 1t-3.5 1q-3 0 -9 2h-1q-5 0 -3 6v3q0 10 2.5 19t4.5 18q2 11 4 22.5t4 22.5q4 23 6.5 45
t7.5 45l7 36h-10l-41 1q-5 -2 -11 -1.5t-8 7.5q-1 3 -1 11q0 4 -0.5 7.5t-0.5 7.5l1 31q0 5 5 7q0 2 3 2q8 2 16.5 4t17.5 3q5 2 9 2.5t9 1.5l23 2l6 34t7 34q4 22 12 45v2l-23 1q-8 0 -16.5 0.5t-16.5 -0.5q-6 -2 -9 -2h-2q-4 -1 -10.5 -1t-8.5 5q-5 11 -2 26l1 11v6l1 18
q0 2 2 4q3 7 9 7q11 1 20.5 2t20.5 2q10 1 19 0.5t18 -1.5l15 -1l12 64q2 6 3 12.5t3 12.5q2 5 3 10.5t2 10.5q2 11 3 22.5t2 22.5l3 24q0 2 0.5 5t0.5 5v4q0 5 0.5 8.5t4.5 6.5l6 3l3 9q2 7 9 5zM229 398l-6 -18t-5 -19q-2 -11 -3 -23t-3 -24l-3 -29q8 -1 15 -1.5t15 -0.5
q12 0 24 -0.5t24 -1.5l31 -1v1q2 10 3 19.5t3 19.5l4 24l4 24l7 36l-111 1z" />
    <glyph glyph-name="dollar" unicode="$" horiz-adv-x="410" 
d="M236 785q3 0 5 -3q4 0 6 -3q2 -5 4 -13q2 -10 2 -15q1 -8 1.5 -15t0.5 -15l1 -23q20 -3 40 -12q12 -5 20 -12q5 -4 9.5 -8t9.5 -9q17 -17 26 -39q4 -9 6.5 -18.5t1.5 -20.5q0 -2 -2 -4q-2 -3 -5 -5q-5 -4 -14 -4h-1l-8 -1l-12 -2q-3 -1 -6 -1t-6 -1l-9 -3h-2q-3 0 -6.5 1
t-3.5 5l-2 10q0 3 -2 9l-5 10q-4 6 -6 8t-3 2.5t-2 2.5q-2 2 -2.5 3.5t-2.5 3.5l-6 5q-4 4 -6 5v-10l-1 -25l-2 -24l-2 -24q0 -6 -0.5 -12t-1.5 -12q-1 -5 -2 -9t-2 -9l-1 -27q-1 -8 -2 -16.5t-2 -16.5l-1 -23q9 -5 17 -10t15 -13t12 -15q12 -11 23 -23q14 -17 23.5 -36
t17.5 -39q4 -10 6.5 -19.5t4.5 -19.5q2 -12 2.5 -24t0.5 -24q0 -14 -3 -27l-2 -18q0 -22 -4 -39q-2 -9 -4.5 -18t-7.5 -17q-7 -12 -15 -20q-14 -21 -35 -35q-5 -6 -11 -11q-13 -11 -28 -16t-32 -7l-1 -12q-2 -11 -3 -23t-1 -23t1 -15q0 -5 1 -8l1 -1l1 -1q7 -5 2 -13
q1 -7 3.5 -18t-8.5 -13q-6 0 -9 -1l-11 -2q-11 -3 -21 -3q-8 0 -6 8q-2 2 -2 5q0 5 -1 8.5t-2 8.5l-2 17q-1 9 -1.5 17.5t-0.5 16.5t0.5 16.5t0.5 16.5v9.5t1 9.5l-5 1h-2q-23 1 -47 11q-5 2 -9 4.5t-9 5.5q-4 2 -8 5t-6 7q-3 6 -4 11.5t-3 11.5q-2 5 -3 10.5t-2 11.5
q-2 11 -3.5 23t-3.5 23t-5 21.5t-5 21.5q-2 2 -1 5l1 2h-1q-2 0 -4 0.5t-1 2.5t3 3t4 1t4 1.5t4 2.5q7 2 8 3l15 9l19 10q9 5 17 6h7q5 0 7 -2q7 -4 7 -16q0 -4 2 -12l1 -2l1 -20v-6.5t1 -6.5q2 -6 2 -12.5v-12.5q0 -8 1 -12q1 -2 1 -4.5t2 -4.5l4 -4l4 -4l7 -8q2 -2 8 -4
q1 5 1 9.5v9.5q0 8 1 16.5t3 16.5v11q0 8 -0.5 16.5t-0.5 16.5q0 17 -1.5 34.5t0.5 34.5q3 36 3 72q0 8 -0.5 16.5t-0.5 16.5l1 22q-18 11 -34 23.5t-29 29.5l-1 2l-11 11q-6 7 -10.5 15t-8.5 16t-7.5 16.5t-5.5 17.5q-5 17 -5.5 35t2.5 35q3 20 7.5 40.5t14.5 38.5
q22 39 63 58q24 11 53 13q-1 5 -1.5 10t-2.5 10q-3 11 -7 21t-6 22q-2 2 -2 5.5t4 4.5q13 1 26 8q5 2 10.5 5t10.5 -1v-10zM186 613q-9 -5 -17 -10.5t-15 -13.5l-4 -5q-1 -2 -1.5 -4.5t-1.5 -4.5q-1 -4 -1 -12q-1 -5 -1.5 -9.5t0.5 -9.5v-2q2 -8 4.5 -15.5t4.5 -15.5
q2 -11 3.5 -21t6.5 -20q7 -17 19 -28v2q0 7 0.5 13.5t1.5 13.5v4q-2 2 -2 3q-1 5 0 9.5t2 9.5l2 19l4 43l6 63zM171 614l1 1l2 1l-2 -1zM229 308v-9l1 -36v-83v-16.5t-1 -16.5l-2 -15v-24v-24t-1 -24h2l1 1l7 5l2 2q8 8 11 12l2 3l2 2l5 6q5 6 9 12.5t7 13.5l2 3v1q2 6 2 8
q0 10 1 15t2 9t1 9v1v4l-1 10l-3 26l-8 49l-1 4l-1 2q-2 8 -4 12l-1 2l-1 1l-4 6q-4 6 -8 11.5t-9 10.5l-13 13v-4v-2h1z" />
    <glyph glyph-name="percent" unicode="%" horiz-adv-x="591" 
d="M133 738q11 1 21.5 0.5t21.5 -2.5q23 -6 41 -25l1 -1q4 2 7 -3l2 -4l2 -2q5 -5 8 -10.5t6 -10.5t5.5 -11t4.5 -12q2 -5 3.5 -10t3.5 -10q3 -11 5.5 -22.5t3.5 -23.5q1 -11 1.5 -23t-0.5 -24q0 -5 -0.5 -10.5t-0.5 -10.5v-9l-1 -9q-1 -11 -3.5 -20.5t-3.5 -20.5
q-1 -13 -6 -25q-2 -5 -3 -10.5t-3 -10.5t-4.5 -10t-4.5 -10t-4.5 -9t-5.5 -8t-9 -10l-8 -10q-9 -12 -23 -18q-8 -3 -16 -3h-16q-4 0 -8 2l-4 -1q-15 0 -26 4l-6 1q-13 3 -20 12l-7 9l-7.5 7.5t-6.5 8.5q-6 10 -9.5 20t-6.5 21q-5 20 -7 45q-1 12 -2.5 24t-1.5 24l1 47l1 24
q0 5 0.5 11t1.5 11t2.5 10.5t2.5 10.5l3 20q2 12 6 22q2 5 5 10.5t5 10.5q2 8 4 12q5 11 12 16q6 5 13 3q11 9 29 11zM474 708q4 1 8 -1q2 -1 3 -0.5t3 0.5q3 0 6 -0.5t6 -0.5q4 0 7 -1l6 -2l4 -1q6 0 8 1t6 1q3 0 5.5 -2.5t1.5 -5.5q-2 -4 -4 -14v-3l-1 -4q-2 -6 -4 -8
l-2 -5l-4 -8l-1 -4q-4 -14 -12 -28l-32 -52q-6 -10 -12.5 -19t-13.5 -18l-27 -37q-4 -5 -7.5 -10.5t-8.5 -10.5l-4 -4l-43 -68q-6 -10 -12 -19.5t-13 -18.5l-13 -19l-6 -9l-5 -6l-2 -3q-7 -9 -13 -18l-12 -18q-5 -7 -9.5 -13.5t-8.5 -13.5q-6 -11 -11.5 -23t-10.5 -24
l-9 -21q-4 -8 -8.5 -15t-9.5 -15q-6 -9 -12.5 -17.5t-12.5 -17.5t-11.5 -18.5t-10.5 -19.5l-23 -41l-12 -22q-2 -5 -4.5 -10t-5.5 -10l-1 -3q-3 -5 -5 -9.5t-6 -7.5q-6 -6 -13 -1q-3 3 -6 5.5t-5 5.5q-5 2 -5 6l-4 5q-6 8 -10 11q-8 6 -11 9l-2 3q-7 5 -3 13q5 9 9.5 18
t9.5 17l21 33q3 5 6 9t5 9q4 8 7 12l3 4q5 8 10.5 15.5t10.5 15.5q8 11 15 23l14 24l28 54l12 25q3 5 6 11t7 11t7.5 10t8.5 10l5 6l2 2l6 9l11 18q6 11 12.5 20t14.5 18l8 10l3 3l2 3l13 17q7 9 12.5 18.5t11.5 19.5q12 20 25 38.5t27 37.5q10 14 19 27.5t16 29.5l13 28
l6 13l2 5l1 3q0 5 2.5 10l3.5 7q6 8 9 11q2 2 5 4.5t6 3.5zM136 662l-4 -4q-1 -1 -1 0l-6 -8l-4 -7l-1 -1v-1l-2 -5l-2 -8l-4 -18q-1 -6 -1 -10t-2 -11l-2 -12l-1 -7q-1 -10 -0.5 -19.5t0.5 -19.5l1 -20l1 -9v-3l1 -3q2 -11 4 -20.5t4 -20.5l1 -9l4 -8q3 -7 7 -13t6 -13
q7 -3 17 -3q14 0 25 4q4 5 6.5 10.5t4.5 11.5q7 20 12 41t7 42q2 11 3 22.5t2 22.5v7v15q-1 5 -2 9t-2 9t-1.5 9t-2.5 8q-2 7 -6 13l-8 12q-2 3 -4 6.5t-5 6.5l-4 2l-4 2l-3 1l-5 1h-4l-7 1h-5h-4zM439 379q11 3 20 -3l3 -1q15 -7 28 -19q14 -14 19 -32t7 -37l1 -7v-4l4 -18
q5 -20 6 -40l3 -36q1 -9 1 -18v-18v-12t-1 -12l-1 -10v-3l-1 -8q-2 -14 -6 -27l-3 -11l-1 -3v-3q-1 -4 -1 -7.5t-2 -7.5l-3 -9l-2 -5q-2 -5 -5.5 -9.5t-7.5 -9.5q-8 -9 -17 -17t-21 -12t-25.5 -4t-26.5 2q-11 3 -25 11q-11 6 -19 13q-13 12 -21 29l-4 12l-4 12l-5 21
q-3 11 -6.5 22.5t-4.5 23.5q-1 11 -0.5 20.5t0.5 20.5q1 24 2.5 48t3.5 48q1 14 3 26.5t7 25.5q4 8 8 15.5t9 15.5q10 19 23 28q2 2 6 4q10 7 20 8q8 1 15 1.5t15 0.5h5h4h-2zM420 319q-10 -2 -17 -6q-2 -2 -4.5 -3.5t-4.5 -3.5l-4 -13l-3 -14v-5l-1 -14v-4v-4l-1 -6l-2 -25
l-1 -49l-2 -49v-18.5t1 -18.5l1 -7l1 -3q2 -10 4 -15l1 -3l3 -6l2 -3l2 -3l2 -1l4 -2l2 -1h4h10h5l8 2l4 1l12 8q8 6 11 9l2 3l2 4l1 3l1 2l3 9l1 4v2q1 11 0.5 23t0.5 24t1.5 24t-1.5 24l-6 58v3l-2 11l-5 22l-4 20l-4 7l-4 5l-5 3q-8 5 -15 4z" />
    <glyph glyph-name="ampersand" unicode="&#x26;" horiz-adv-x="454" 
d="M208 716q23 2 44 -6h2q5 -2 9 -2.5t9 -2.5l16 -6q5 -2 10 -4.5t10 -5.5q10 -7 18.5 -14t15.5 -17q10 -14 13.5 -30.5t5.5 -33.5q1 -13 -2 -30q0 -19 -4 -32q-6 -20 -19 -40q-12 -19 -26.5 -35t-30.5 -32l-18 -18q-4 -4 -7.5 -8t-8.5 -8l-11 -8l11 -18q6 -10 11 -20
t11 -20q6 -11 10.5 -21.5t10.5 -21.5t10 -22l8 -22l4 -12l1 -4l1 -2l7 -15v6q0 13 2.5 25t4.5 24l1 7v3l1 10q0 5 -0.5 9.5t0.5 9.5q-1 5 -1 9.5v9.5q0 10 7 14q8 4 19 6q5 1 10.5 1t10.5 1t9 2.5t9 -0.5t6 -6t2 -9q1 -2 0.5 -4.5t-0.5 -4.5v-8q1 -14 0.5 -29t-1.5 -29
q-1 -15 -2.5 -30t-5.5 -29q-3 -13 -8 -24.5t-11 -22.5l-12 -25q5 -9 10.5 -18t10.5 -19l8 -18q5 -9 8 -17l4 -5q3 -3 3 -8q2 -4 4 -7.5t3 -8.5t0.5 -10.5t-0.5 -11.5t-8 -8l-39 -3q-8 0 -16.5 0.5t-16.5 4.5q-4 3 -4 8q-4 4 -7 8.5t-6 9.5t-6 9.5t-5 9.5l-1 2l-9 -7
q-8 -7 -17 -11l-8 -4l-11 -5l-16 -8q-6 -4 -14 -6l-15 -2q-23 -2 -47 1t-45 14q-18 9 -31.5 24.5t-22.5 32.5l-3 5l-3 6q0 1 -1 2l-2 3l-4 9l-2 4l-4 9q-2 7 -3.5 14.5t-3.5 13.5l-6 30q-2 8 -2.5 15.5t-2.5 14.5q-2 8 -3 16.5t-1 16.5v13.5t1 13.5q2 14 7 23l3 7q4 8 7 17
q2 6 4 9q4 4 5 7q1 4 5 6q5 9 10 16l13 16l6 8q7 8 13.5 16t14.5 16l12 11q-2 5 -3.5 10t-3.5 10l-7 23l-7 20l-1 2q-6 8 -9 17q-2 5 -3 10.5t-3 10.5q-5 11 -5.5 22.5t-1.5 23.5q-1 6 -1.5 12t-0.5 12q0 5 0.5 10.5t0.5 10.5q1 19 3.5 39.5t14.5 36.5t30 25t38 12l12 2h2h4
h13zM191 638q-6 -2 -9 -4l-2 -1l-3 -3l-3 -3l-2 -2q-2 -4 -4 -7.5t-4 -7.5l-5 -10l-1 -2l-1 -3v-4v-6v-11v-22l3 -11l4 -10l1 -3l12 -29l2 -4l1 -3l5 -11l10 -24l36 27l19 13l1 1l3 3l6 6l4 4l1 2l9 18l2 4l2 4l3 9l2 6l1 3l1 9v10v4v2l-2 10l-1 4l-1 1q-3 7 -9 15l-1 1
l-3 3l-7 7l-8 7l-2 2l-3 2l-9 6l-3 1l-3 1l-5 1h-1l-10 1h-13l-3 -1l-2 -1zM165 329q-8 -8 -15 -15.5t-14 -15.5l-4 -6l-1 -1l-6 -9q-3 -5 -5.5 -9t-4.5 -9l-1 -2l-2 -4l-3 -9l-2 -9v-3v-2q-1 -11 -0.5 -22.5t1.5 -22.5l1 -6v-3l2 -11l5 -21q2 -10 4.5 -19.5t5.5 -19.5l2 -5
v-1l2 -5q4 -8 7 -12l2 -2l3 -3l6 -5l3 -3l7 -5l6 -3q10 0 19.5 0.5t18.5 1.5l7 1h3l10 2l10 3l3 1l4 2l10 7l3 2l3 2l15 14l4 3l-8 25l-3 11q-17 36 -30 70l-5 9q-5 10 -11.5 19t-13.5 18q-11 17 -20 34.5t-17 35.5z" />
    <glyph glyph-name="quotesingle" unicode="'" horiz-adv-x="164" 
d="M78 717q2 -1 4.5 -1t4.5 -1q6 -2 9 -2q6 0 16 -2q6 -2 4 -8v-1q0 -7 -1 -13.5t-2 -13.5q-1 -6 -0.5 -12t0.5 -12t-0.5 -12t-0.5 -12v-24l1 -50q0 -6 1 -12l2 -12q1 -4 1.5 -7t0.5 -7q2 -2 1 -5.5t-3 -5.5q-5 -5 -14 -7l-5 -2q-3 -2 -6.5 -2.5t-6.5 -2.5l-15 -6
q-8 -4 -13 -4q-3 0 -5 4l-2 6l-2 3q-1 14 1.5 26.5t2.5 26.5q0 7 0.5 13.5t1.5 13.5q1 6 1.5 12.5t-0.5 12.5q-1 7 -1 13.5v13.5v12q0 3 0.5 5.5t1.5 5.5q4 12 4.5 25t1.5 26q-2 10 4 14q3 2 6.5 1.5t7.5 -1.5z" />
    <glyph glyph-name="parenleft" unicode="(" horiz-adv-x="251" 
d="M191 797q2 -1 4 -3q3 0 6 -3q5 -4 7 -10t4 -11q2 -6 5.5 -11.5t6.5 -11.5q5 -4 5 -8.5t-2 -8.5l-1 -3q-3 -5 -4.5 -10t-3.5 -10q-2 -7 -5.5 -12.5t-6.5 -11.5q-5 -10 -8.5 -19.5t-6.5 -20.5t-6.5 -22t-5.5 -22t-3.5 -22.5t-3.5 -22.5t-5 -22.5t-5 -22.5q-2 -6 -2.5 -12
t-2.5 -11l-5 -20l-3 -12l-1 -5l-1 -4q-1 -5 -1 -10v-10q0 -14 -3 -27l-2 -10l-1 -5v-2q-2 -11 -1.5 -21.5t2.5 -21.5l1 -5v-3l1 -10l3 -21l8 -48q2 -7 2 -14t1 -14l1 -11v-3v-3q2 -11 3.5 -22.5t3.5 -22.5q5 -23 8 -46t8 -46q2 -6 3 -12l2 -12l2 -11l1 -3l1 -2l3 -8l5 -9
l6 -12t5 -12q1 -4 1 -10v-5q2 -4 2 -12q0 -5 -5 -7q-7 -2 -13 -5.5t-12 -6.5q-3 -2 -6.5 -3t-6.5 -3q-2 -2 -4 -3l-4 -2q-5 -2 -10 -2.5t-7 5.5l-5 14q-9 6 -9 19l-1 5v2l-3 9l-6 21q-3 13 -3 27q-5 6 -6 12l-3 13l-7 29l-6 29q-2 7 -3.5 13.5t-3.5 13.5l-9 45q-2 7 -3 13.5
t-2 13.5l-1 10v2l-1 6q-2 13 -4.5 25t-4.5 25q-2 11 -2 22.5t-1 22.5q-2 23 -3.5 46.5t0.5 46.5q2 25 6.5 49.5t9.5 49.5q5 23 10.5 46t14.5 45q5 11 7.5 22.5t5.5 22.5q2 6 4 11.5t4 11.5l6 21q2 9 4.5 17.5t7.5 16.5q4 7 8 13.5t9 12.5l6 6l6 10l1 2l2 6q2 3 3.5 6.5
t3.5 5.5q7 5 13 3h2z" />
    <glyph glyph-name="parenright" unicode=")" horiz-adv-x="257" 
d="M96 794q6 1 11 -5t7 -11l4 -6l5 -3q2 -2 6.5 -8.5t5.5 -11.5l4 -14q3 -10 5.5 -19.5t4.5 -19.5q4 -20 8 -39t9 -39q2 -11 4 -22.5t3 -22.5l2 -18l1 -7l2 -9q2 -6 3 -12l2 -12l1 -10q6 -26 9 -51q5 -50 4.5 -99t0.5 -99q0 -12 0.5 -23.5t0.5 -23.5q0 -27 -7 -49
q-4 -11 -6 -22l-4 -22l-5 -24q-2 -5 -2.5 -11t-2.5 -11q-2 -7 -5 -13.5t-6 -14.5l-2 -5l-4 -10q-4 -12 -9.5 -24t-10.5 -23l-10 -20l-1 -3l-1 -5q-1 -2 -1.5 -5.5t-2.5 -5.5q-2 -3 -6 -7q-2 -9 -7 -13t-10 -4h-10l-25 -2q-5 -1 -9 -0.5t-9 -0.5q-5 0 -7 1q-7 0 -11 3
q-5 3 -3 8t3 11t3 11l3 7q0 7 5 12l1 1l1 3l3 6l1 2l8 23l10 24q5 11 8.5 20.5t8.5 21.5q9 23 15.5 46t11.5 46q3 11 5.5 22.5t3.5 22.5l3 25q1 6 1 12t1 12q2 12 3 23.5t1 23.5q0 11 0.5 23t-1.5 23v2l-1 4l-1 6l-2 11l-3 26l-4 49q-2 13 -3.5 24.5t-2.5 24.5q-1 12 -1 24
t-1 24q-1 24 -4.5 47t-8.5 46l-5 20q-4 5 -7.5 10.5t-5.5 11.5l-11 30l-7 15q-4 8 -5 12q-1 8 1.5 13t7.5 11q10 13 21 23q5 5 9.5 10t12.5 6z" />
    <glyph glyph-name="asterisk" unicode="*" horiz-adv-x="318" 
d="M160 730q3 0 7 0.5t7 -1.5q6 -2 8 -12q1 -8 0.5 -15t0.5 -15v-6.5t-2 -6.5v-5v-19v-12q11 11 20 23q4 5 7 9.5t8 8.5l15 15q5 5 11 3q3 0 8 -3l13 -11q4 -3 7 -6.5t7 -5.5t2.5 -6.5t-6.5 -3.5q0 -4 -3 -5q-2 -2 -3.5 -4t-3.5 -4l-10 -9q-6 -4 -10 -10q-6 -8 -9 -11
q-5 -5 -10 -9.5t-10 -9.5l-3 -4q10 -12 14 -22q4 -8 7.5 -16.5t6.5 -16.5l6 -16t8 -16q4 -5 -2 -9l-5 -3q-1 -2 -5 -6q-5 -3 -11 -3l-16 -7q-4 -2 -6 2q-8 11 -11.5 23.5t-6.5 25.5l-9 18q-3 5 -6.5 9.5t-7.5 9.5q-1 -5 -2 -8.5t-3 -7.5q-2 -5 -3.5 -9.5t-3.5 -9.5
q-3 -10 -5 -19.5t-6 -19.5q-2 -4 -3.5 -8t-5.5 -6q-6 -3 -13 -1q-8 2 -16 4.5t-17 2.5q-3 0 -6 1t-5 4q-2 4 -0.5 7.5t3.5 7.5q4 9 7 18t7 18q5 9 10 17.5t10 16.5l5 8l-9 6q-4 3 -7.5 6t-8.5 5q-8 4 -13 10q-10 10 -21 17q-4 2 -8 5t-6 8q-4 0 -5 3q-2 5 0.5 8t4.5 7
q3 5 6.5 8.5t6.5 8.5l4 6t6 5q3 2 6.5 -1t5.5 -5l3.5 -3.5l3.5 -3.5l8 -5q5 -3 9 -5.5t9 -5.5q4 -2 7.5 -4.5t6.5 -5.5q-3 15 -3 30q0 12 -0.5 24t-1.5 24q0 3 3 5q7 3 14 2.5t15 -0.5z" />
    <glyph glyph-name="plus" unicode="+" horiz-adv-x="390" 
d="M208 519q6 0 9 -4q2 -2 2.5 -4.5t2.5 -4.5q5 -8 6 -17t1 -18v-5q1 -11 1.5 -22.5t0.5 -22.5t-0.5 -21t1.5 -21l1 -10l30 3q9 1 18 1.5t18 0.5h17h6l24 3q4 1 6 -2t2 -6q0 -2 0.5 -3t0.5 -3l1 -7q0 -4 0.5 -7.5t0.5 -7.5t-0.5 -7.5t-0.5 -7.5q0 -10 -1 -15q0 -8 -6 -9
q-5 -1 -10 -1.5t-10 1.5l-7 -1l-52 -3q-18 0 -36 -3l1 -46l1 -42v-8v-3l1 -8v-4q3 -6 3 -13q2 -7 1 -15.5t-9 -10.5q-4 -1 -7.5 -0.5t-7.5 0.5h-9.5t-9.5 1t-10.5 1.5t-10.5 0.5t-8.5 1t-8.5 2q-4 0 -7.5 1.5t-2.5 6.5l1 10l1 3q0 4 0.5 8t0.5 8v21q0 11 0.5 21t1.5 21l2 35
q-7 -1 -13.5 -1.5t-13.5 -0.5q-9 0 -18 0.5t-18 1.5q-8 -2 -12 -2q-10 0 -19 -3q-3 -1 -7 -1.5t-6 -1.5q-5 -1 -9.5 -0.5t-6.5 5.5q-2 2 -1.5 4.5t0.5 4.5v8l1 27l-1 5q0 5 2 12t8 7q19 1 37.5 2.5t37.5 4.5q9 2 18 2.5t18 1.5v55q0 10 -1 19.5t-2 19.5l-2 21v2l-2 6
q-1 4 -2 9t1 9q2 3 5.5 4t6.5 2q6 1 12 1.5t12 2.5l12 3q2 1 5 2t5 1h4z" />
    <glyph glyph-name="comma" unicode="," horiz-adv-x="167" 
d="M48 125q5 0 10 -1t10 -1l19 -1l19 -2l7 -1q6 0 8 -2q4 -3 5 -6t2 -8q2 -10 0 -19l-1 -7l1 -5q2 -6 2 -9l1 -11q0 -11 1 -22.5t0 -22.5q0 -6 -2 -14q-1 -7 -1.5 -13t-2.5 -12q-3 -11 -7 -22.5t-8 -22.5q-2 -5 -4.5 -10.5t-4.5 -10.5l-2 -8q-1 -2 -1 -4t-1 -4l-2 -3
q-1 -2 -1.5 -5t-2.5 -5q-7 -10 -18 -5q-8 4 -17 7q-6 2 -7.5 7t0.5 10l1 2q0 3 1 5q7 14 8.5 29.5t6.5 29.5q7 17 11 31l3 12h-9q-5 0 -9.5 0.5t-8.5 3.5q-2 2 -4 8l-2 8q-2 7 -4.5 13.5t-4.5 13.5q-2 8 -2 15.5v15.5q0 5 -1 10t1 10l2 4l-1 3q-2 3 0 6l1 6q1 6 8 6z" />
    <glyph glyph-name="hyphen" unicode="-" horiz-adv-x="265" 
d="M218 421q4 -2 5 -4q5 -8 5 -18v-3v-1v-5v-3q-2 6 0 -3v-8v-11v-4q0 -6 -1.5 -14t-9.5 -9q-10 -2 -19.5 -1t-19.5 1q-11 0 -22.5 -1t-22.5 -1t-21 -0.5t-21 -0.5h-16t-16 1h-18q-8 0 -8 7l2 18t3 18l3 16q1 4 1.5 7t2.5 6q1 3 5 3q2 4 6 5q20 4 39 3.5t39 1.5q5 1 10 1.5
t10 0.5h10.5t10.5 1q9 2 18.5 3.5t18.5 -0.5l3 -1l3 -2v-3z" />
    <glyph glyph-name="period" unicode="." horiz-adv-x="159" 
d="M88 100q8 0 12 -1l10 -2t8 -6q3 -4 4 -8.5t1 -9.5v-11l1 -5q2 -10 1.5 -21t-4.5 -21q0 -9 -5 -13q-9 -9 -20 -7q-7 -2 -13.5 -1.5t-13.5 1.5q-4 1 -8 1t-8 2q-9 7 -11 14q-4 11 -4.5 23t0.5 23l1 8l-2 4q-1 4 -1 9t3 8l4 2q4 6 7 8q6 5 14.5 5.5t16.5 -1.5z" />
    <glyph glyph-name="slash" unicode="/" horiz-adv-x="285" 
d="M231 766q3 -2 6 -4.5t6 -4.5t6.5 -3.5t5.5 -3.5q7 -4 13 -8.5t12 -9.5q4 -2 2 -6l-3 -6l-1 -3q-4 -10 -6 -20t-4 -21t-3 -22t-3 -22t-5.5 -20.5t-6.5 -19.5q-4 -11 -6.5 -22t-5.5 -22t-6.5 -22t-7.5 -22q-8 -23 -15.5 -44.5t-14.5 -44.5t-13 -46.5t-12 -46.5l-12 -47
q-3 -11 -5.5 -23t-4.5 -24q-5 -24 -10 -47.5t-9 -47.5q-2 -12 -4.5 -24t-5.5 -24q-2 -11 -5 -22.5t-6 -22.5t-6 -22.5t-5 -22.5q-1 -6 -2 -11.5t-1 -11.5v-13v-3v-7q0 -2 -0.5 -4t-0.5 -4q0 -6 -3 -10q-2 -6 -7 -4q-19 0 -37 3q-9 1 -18 1.5t-17 3.5q-5 0 -5 6v12q0 6 2 9
q2 17 3 33.5t6 33.5q2 11 5.5 21t6.5 21q2 5 4 10.5t4 10.5v1q6 19 9 41l4 24l4 24q2 11 4.5 22.5t5.5 22.5l11 48q2 11 4.5 22.5t5.5 22.5q5 23 12 44.5t14 44.5q3 11 5.5 22.5t6.5 22.5l15 45q4 11 7.5 21.5t6.5 21.5l6 24q2 6 3 11.5t2 11.5l9 47q1 6 1.5 12.5t2.5 12.5
l6 20q3 10 8 23q1 2 1 5.5t1 6.5q2 12 7 20l3 6q2 4 3.5 7.5t3.5 7.5q2 6 7.5 11t13.5 0z" />
    <glyph glyph-name="zero" unicode="0" horiz-adv-x="400" 
d="M187 723h21q10 0 15 -1q20 1 41 -3q7 -2 13.5 -3.5t12.5 -4.5q5 -3 9.5 -6.5t9.5 -7.5l-3 2q9 -7 16 -16q3 -4 6 -7.5t5 -8.5q5 -8 7 -16l4 -16l6 -42l4 -38t3 -38q1 -39 0 -78l-2 -48l-2 -48q-1 -12 0 -24t1 -24q0 -26 -3 -51q1 5 0.5 2t-0.5 -4l-1 -9l-1 -5
q0 -1 -0.5 -3.5t0.5 2.5q-1 -6 -1.5 -12t-2.5 -12t-3 -12l-2 -12l-1 -6l-1 -4l-1 -10q-2 -11 -3.5 -21.5t-4.5 -21.5l-1 -4q-2 -10 -3.5 -19t-4.5 -18q-2 -8 -4.5 -15t-6.5 -14t-9 -11.5t-11 -9.5l4 3q-3 -3 -6 -6.5t-7 -6.5q-3 -2 -6 -4.5t-6 -4.5q-4 -2 -10 -4l-7 -3
l-3 -1l-14 -3q-14 -4 -29.5 -5t-29.5 3q-6 2 -12 3.5t-12 3.5q-4 2 -8 3.5t-8 3.5l-5 3q-14 2 -22 13q-2 1 -3.5 1.5t-3.5 2.5q-11 8 -19 21q-15 23 -19 46l-2 17v1v1l-1 5l-5 23q-2 7 -2.5 13.5t-1.5 13.5q-6 25 -7.5 49.5t-4.5 49.5q-3 24 -1 48.5t2 48.5v12t1 12l3 22
q3 22 3 45q0 11 -0.5 22.5t0.5 22.5q1 13 3.5 25.5t4.5 25.5l2 13l1 6l1 4v2l1 9l1 8q1 8 2 14.5t2 14.5q1 5 1.5 10.5t2.5 10.5q5 16 9 23.5t7 12.5q2 2 2.5 4.5t2.5 4.5q2 3 4.5 6.5t5.5 6.5q8 7 18 11q5 2 10.5 4t10.5 4l-7 -3q8 3 16 5t17 2zM220 649h-13.5t-13.5 -1
q-11 -1 -22 -6l-9 -4l-2 -1l-2 -2l-4 -4l-2 -2l-2 -3l-1 -3q-2 -8 -3.5 -15t-3.5 -15q-2 -7 -3.5 -13.5t-3.5 -13.5l-3 -13v-4l-3 -23q-2 -12 -2.5 -24t-1.5 -24t-0.5 -24t-1.5 -24q-1 -11 -1.5 -22.5t-0.5 -22.5v-99l1 -49q1 -11 1 -22.5t2 -22.5q2 -13 5 -25.5t6 -25.5
q3 -11 6 -22.5t8 -22.5l1 -2l2 -2l8 -6l6 -6l6 -4l9 -3q4 -1 7.5 -2t7.5 -2q6 -1 12 -0.5t12 1.5q6 2 11 2l3 2l3 3l5 6l2 3l5 8l4 8l1 3q6 16 9 33l2 13l1 5l3 27q-1 -6 -0.5 -2.5t0.5 4.5l1 6l1 12l2 23q1 12 1 24v24q0 11 1 22.5t2 22.5q2 25 1.5 49.5t-2.5 49.5l-2 47
q-1 11 -0.5 21t-0.5 20q-2 14 -4 28.5t-3 28.5l-1 30v10.5t-1 10.5l-2 9l-6 9l-5 5l-4 4l-2 1q-3 2 -11 6l-7 2l-2 1z" />
    <glyph glyph-name="one" unicode="1" horiz-adv-x="293" 
d="M154 723q4 0 9 -0.5t8 -2.5l4 -3l9 -3l18 -4l13 -4l26 -14l1 -1q6 -2 6 -6l1 -19v-12t-2 -12v-2v-4v-8v-2v-2v-10q0 -16 -0.5 -31.5t-2.5 -31.5l-4 -24t-3 -24l-2 -48q-2 -24 -5 -48t-5 -48l-1 -10v-12l2 -24t0 -24q-1 -11 -2 -22.5t-3 -22.5l2 -14q1 -8 1 -16.5v-16.5
q0 -6 0.5 -12t0.5 -12q0 -5 -0.5 -10.5t-0.5 -10.5q-1 -10 -1 -19.5t-1 -19.5t-1.5 -19.5t-0.5 -19.5v-19q0 -5 -0.5 -9t-0.5 -8v-11l1 -2l3 -9l1 -3q2 -2 2 -5q0 -2 1 -5t2 -5q2 -8 -6.5 -12t-13.5 -4h-9l-3 -1q-4 -1 -20 -2.5t-24 -1.5q-5 0 -10 2.5t-7 7.5q-3 12 -3 26
q-2 10 -2.5 19.5t0.5 19.5v8l1 21v10v2v17v19.5t1 19.5q1 17 3.5 33.5t4.5 33.5l2 17l1 10v1v33l1 98q0 52 3 105l4 50q1 12 2 24.5t3 24.5l4 25l1 12l1 19q-4 -4 -10 -12l-2 -2l-4 -6q-4 -6 -8 -11.5t-8 -11.5q-4 -7 -7.5 -14t-7.5 -14q-3 -6 -10 -10l-3 -2l-3 -2l-6 -3
l-2 -2l-1 -2l-4 -6q-5 -7 -17 -9.5t-20 2.5q-4 2 -7 7q-2 3 -3 5l-9 15l-9 15q-2 2 -2.5 4t-2.5 6q-5 4 -3.5 8.5t6.5 7.5l3 2q4 8 16 13l8 6l8 6q-2 -1 -1 0q1 0 2 1l4 4l2 2q4 5 7.5 10t8.5 10t9 9.5t9 9.5l4 5l2 3l6 7l9 10l5 6l2 3l3 5v1v1q2 3 8 7q7 5 17 7z" />
    <glyph glyph-name="two" unicode="2" horiz-adv-x="294" 
d="M160 704q19 0 36.5 -5.5t30.5 -21.5q12 -15 19 -33t12 -36q2 -11 2.5 -23t1.5 -23l2 -24t0 -24q-1 -23 -7.5 -45t-14.5 -43q-8 -24 -18 -44q-5 -11 -10.5 -20.5t-10.5 -19.5q-11 -20 -22 -40.5t-20 -41.5q-15 -32 -26 -62l-2 -11q-2 -5 -4.5 -10t-4.5 -10l-1 -3l-1 -5
v-12q0 -5 -1 -10t-3 -10q-2 -11 -2.5 -21t-0.5 -21q0 -5 -0.5 -10.5t-0.5 -10.5l11 1h10.5t10.5 -1l15 -2h2l6 -1q6 -1 12 -1h12h12t11 -1l5 -1l7 -1q8 -2 12 -4q7 -4 7 -10v-7v-2q2 -8 2 -12l1 -5q0 -4 -3 -10q-3 -7 -14 -11q-5 -2 -9 -3t-7 -1q-7 -2 -14 1h-7l-13 2h-5
q-4 1 -12 1h-4h-3q-7 0 -13.5 -0.5t-13.5 0.5l-24 3l-11 1h-2h-3l-14 -3q-8 -2 -16.5 -3t-16.5 0q-5 1 -10.5 3t-6.5 7v7q-2 3 -2 10q0 2 2 6v12t2 11l2 6t1 6l1 13q1 8 1.5 15t2.5 15l5 27q2 14 4.5 28t6.5 28l5 14l3 7l4 10l5 10q0 6 1 8l4 19q2 11 5.5 20.5t7.5 19.5l1 2
l1 2l2 5l5 12q2 5 4.5 9t5.5 9q6 10 12.5 19.5t13.5 19.5l25 38l12 21l5 10l2 4l1 3l9 24q2 5 3.5 9t2.5 9q2 11 3.5 22.5t-0.5 22.5q-2 12 -3.5 24t-3.5 24q-2 10 -2 15v6v3l-3 6l-4 9l-1 2l-2 3q-5 7 -11 14l-5 5l-2 1l-4 2l-4 2l-10 -1q-1 0 -3.5 -0.5t-0.5 0.5l-9 -2
q5 1 2 0.5t-5 -1.5q-1 0 -4 -1.5t1 0.5l-6 -4l-1 -1l-2 -4l-8 -22q-2 -7 -5 -13.5t-5 -13.5q-4 -13 -1 -28q1 -9 0 -17q-2 -8 -2 -11q1 -11 -10.5 -15.5t-19.5 -3.5q-7 1 -13.5 0.5t-13.5 1.5q-8 2 -8 9v2l-1 6l-1 7l-1 14l-1 10q0 10 1 15q1 6 1 12v12q0 13 3 27l3 14
q1 3 1 6t1 6q4 13 14 24q11 11 25 16l28 11q12 3 24 3z" />
    <glyph glyph-name="three" unicode="3" horiz-adv-x="352" 
d="M162 702q13 2 24.5 -1.5t22.5 -9.5l16 -8t15 -10q4 -4 6 -7q3 -2 5 -5q2 -4 4.5 -7t4.5 -7q9 -16 16 -38q6 -21 9 -42l2 -23l1 -20q1 -11 1.5 -22.5t0.5 -22.5v-10.5t-1 -10.5q-2 -9 -6 -18l-6 -12t-7 -11q-8 -19 -19 -33q-3 -4 -6 -7l-6 -6l4 -3q5 -5 8 -11l3 -5l2 -3
q2 -5 5.5 -8.5t6.5 -8.5q7 -10 11 -20q5 -10 6.5 -19.5t3.5 -20.5t3.5 -21t3.5 -20q4 -20 6 -39l1 -22q0 -5 0.5 -11t-0.5 -11l-1 -8l1 -11v-11t-1 -11q0 -5 -0.5 -9t-1.5 -9q-3 -18 -6.5 -37t-14.5 -34q-13 -19 -31 -29q-5 -3 -10.5 -5.5t-10.5 -4.5q-11 -5 -24 -6
q-11 -3 -22 -5t-22 -1q-9 0 -18 3q-12 0 -20 4q-12 3 -21 10l-4 3l-3 2l-7 4q-8 5 -12 10q-6 6 -8 9l-2 4l-9 18l-9 27q-4 13 -6 29q-1 8 -0.5 15t-0.5 14q-1 8 -2 15t0 15l2 10v5q1 9 1.5 17t9.5 14t19 6.5t21 -0.5q6 2 9 2q11 2 17 -2t3 -13q1 -3 1.5 -5.5t0.5 -5.5v-9
v-21v-18t1 -17q2 -20 7 -36q1 -5 5 -15l2 -5l3 -4q6 -8 10 -11l3 -2l6 -3l3 -1q2 0 5 -0.5t-2 0.5l14 -2l6 2l5 2q6 4 14 6l2 3l3 6l2 4l3 9q2 6 3 12l2 12q3 21 3 42v22.5t-1 22.5t-2.5 24t-2.5 24q-1 7 -0.5 12.5t-0.5 11.5q-1 5 -2 10.5t-3 10.5l-11 38q-2 5 -3 9t-3 8
l-3 6l-1 2l-2 3l-6 6l-2 2l-2 2l-9 5l-5 -1q-23 -3 -45 -3h-2q-8 -3 -17 -3q-5 0 -11.5 1.5t-5.5 8.5q0 2 -0.5 5.5t-0.5 6.5v11q0 4 0.5 7.5t0.5 7.5q0 2 -1 4.5t-2 4.5q-1 5 2.5 7.5t6.5 4.5l5 2q6 3 13 3q8 2 11 2l6 1l9 2l14 2l4 1l1 1l2 1l5 3l9 6l6 3l1 1l3 2l1 1l6 6
l7 8l2 2q2 4 4 7.5t4 7.5l1 3l1 5q0 6 2 9v6v44t-8 43l-2 6l-1 3l-5 8l-10 14q-3 4 -6 7.5t-6 6.5l-5 5l-2 2l-3 2l-1 1h-1h-4h-3h-1l-2 -1l-2 -1l-2 -1l-4 -2l-5 -4l-7 -7l-1 -4l-4 -22l-4 -22q-2 -10 -4 -15l-2 -4l-1 -2q-4 -10 -4 -17q0 -8 -9.5 -13t-17.5 -3
q-6 -2 -9 -2h-3q-8 -3 -16 0q-12 4 -12 18q0 8 3 16q2 6 3 13t1 13l3 27q2 11 4.5 22.5t7.5 22.5q9 18 26 29q8 5 17 9l18 8q21 9 44 12z" />
    <glyph glyph-name="four" unicode="4" horiz-adv-x="362" 
d="M247 702l3 -1h1q7 -2 14 -8q10 -2 10 -10q0 -4 1.5 -7.5t1.5 -7.5l1 -16q1 -4 1.5 -7.5t0.5 -8.5q0 -11 1 -16t1 -10.5v-10.5v-18q0 -5 -2 -15q-1 -4 -0.5 -8t0.5 -8q0 -9 -0.5 -18t-0.5 -18v-37v-72v-98v-49v-14l17 -2l14 -1q2 0 8 -1.5t8 -2.5q4 0 8.5 -1t6.5 -6
q-1 2 0 -0.5t1 -3.5l1 -3l1 -8l1 -17v-9v-3l1 -6q0 -9 -8 -14q-15 -9 -31 -6h-2q-3 -1 -9 -1q-4 1 -10 3v-2v-28l1 -21q1 -13 1.5 -25.5t0.5 -25.5v-48v-10q0 -10 -10 -17q-13 -8 -28 -8h-12q-7 0 -11 1l-7 -1q-8 -1 -16 1.5t-8 12.5q0 15 2 30.5t3 31.5q1 20 0.5 39t0.5 39
l1 45l-11 2q-9 2 -17.5 4.5t-18.5 4.5h-4h-9q-11 0 -21 3l-9 2l-7 1l-6 1l-6 1l-9 1l-26 4q-5 1 -10.5 1t-10.5 2l-5 2l-13 1q-7 0 -12 5q-3 2 -5 5t0 6v1q-1 2 -1 6q0 3 2 9l2 6l-1 -1l1 3q1 5 1.5 9t2.5 9q3 9 6.5 17.5t7.5 16.5q8 17 16 33t16 33l10 22l5 10l2 5l1 2v1
q5 11 9.5 22t9.5 22v1l1 3l2 5l4 10l7 22q2 7 5 13l6 12q2 5 4.5 10t4.5 10q5 9 11.5 17.5t11.5 18.5q10 23 21 41l19 32l4 8l1 2l1 3q1 4 1 7.5t1 7.5q-2 10 -4 15t3 8.5t9 5.5q12 5 22 1h3l9 -3zM214 547q-2 -5 -5.5 -10t-5.5 -10l-15 -33q-1 -1 -1 -2v-1l-1 -4
q-3 -13 -10 -21q-4 -5 -8 -9.5t-7 -9.5l-11 -19q-3 -5 -5.5 -11t-4.5 -12q-2 -5 -5 -10.5t-5 -10.5l-14 -28l-1 -3l-3 -10q-2 -6 -4.5 -12t-5.5 -12q-2 -5 -5 -10t-5 -10q-2 -3 -2.5 -6t-2.5 -5l-1 -3l9 -2q8 -2 16 -5t16 -5l18 -4l18 -4l15 -3l11 -2l13 -2h3l1 42
q1 24 1 48v48t3 48q2 12 1 24t1 24q2 11 3 22.5t1 22.5v11z" />
    <glyph glyph-name="five" unicode="5" horiz-adv-x="357" 
d="M233 701q5 -1 9.5 -1h9.5h13.5t13.5 -1q5 -1 9 -1t9 -1q6 -1 11 -2.5t8 -6.5q2 -4 2 -8v-8v-21q0 -4 -1 -6q2 -6 2 -9q-1 -8 -9.5 -10t-13.5 -1q-11 2 -21.5 1.5t-21.5 -1.5q-12 -1 -24 -1t-24 -1t-24.5 -0.5t-24.5 1.5l-19 1v-38q0 -8 -0.5 -15t-0.5 -15v-30
q-1 -15 -2.5 -30t-1.5 -30v-30v-8l7 2q11 3 23 4t23 1q38 0 68 -18q30 -19 43 -49q7 -16 9 -35q1 -9 1 -18v-18l1 -35q1 -24 1.5 -48.5t-1.5 -48.5q-1 -11 -3.5 -22.5t-3.5 -22.5q-2 -12 -3.5 -24t-4.5 -23q-5 -20 -22 -40q-7 -8 -14.5 -16t-16.5 -14q-11 -7 -22.5 -12.5
t-24.5 -8.5q-8 -2 -16.5 -2h-16.5h-4l-10 -1q-11 -1 -21 0.5t-20 6.5t-17 12q-8 7 -14 14t-11 16q-3 5 -5.5 10.5t-4.5 10.5l-2 5q-5 9 -9.5 18.5t-6.5 19.5q-2 5 -2 11.5v12.5v12t1 12t1.5 11.5t2.5 11.5l2 8t1 8t3.5 7.5t6.5 5.5q8 5 20 7q9 2 16 -1q13 4 21 0
q9 -4 9 -13.5t-1 -17.5q0 -11 -0.5 -22.5t0.5 -22.5l2 -30v-1l1 -2q2 -5 3.5 -9t3.5 -8l5 -8l3 -2q10 -6 25 -6h8q2 0 5 1q5 2 8.5 3.5t8.5 3.5l5 6l6 7l2 3l2 3q3 5 6 9.5t5 9.5l4 9v1v1l2 5q1 4 5 12l1 2l1 5q0 5 0.5 10.5t0.5 10.5q0 6 1 12l2 12q1 5 1.5 11t1.5 11l4 22
q1 5 1 10.5v10.5v24v9l-1 3v2l-1 5q-2 7 -3 14t-3 14l-4 13q-2 8 -4 11q-8 12 -18 21q-11 9 -23 12q-6 2 -13 2t-13 -1t-12.5 -2.5t-13.5 -3.5l-7 -2l-4 -1l-2 -3q-5 -8 -8.5 -15.5t-8.5 -14.5q-11 -16 -31 -14q-6 0 -10.5 2.5t-4.5 9.5q0 9 -1 20t0 21q1 11 1.5 21t0.5 21
t0.5 22.5t0.5 22.5v44q1 23 4.5 44.5t5.5 43.5q2 21 2 42v42q0 3 3 5.5t5 4.5q5 4 11 5q15 6 28 2h1h15h21h54l5 2q7 2 13.5 2t13.5 -1z" />
    <glyph glyph-name="six" unicode="6" horiz-adv-x="383" 
d="M231 711q11 -1 23 -3.5t21 -9.5q8 -6 16 -13t14 -15q11 -14 18 -34q7 -19 8.5 -38t0.5 -39v-2v-8q0 -6 -1.5 -11.5t-2.5 -11.5t-8.5 -9t-12.5 -4h-1l-4 -1q-2 0 -4 -1t-4 -1q-5 -1 -8.5 -2t-8.5 -3q-4 -1 -8 -2.5t-9 0.5t-5 11v2q0 5 0.5 10.5t1.5 10.5q1 4 0 8.5t-1 9.5
v10.5t-1 10.5q-1 4 -0.5 8t-0.5 8q-3 15 -10 26q-6 8 -10 11l-3 3l-1 1l-5 3l-7 4l-2 1h-1l-7 2h-3h-4q-2 0 -5 -0.5t2 0.5h-3h-1l-2 -1l-2 -1l-5 -2l-3 -2l-2 -2l-4 -4l-5 -6l-1 -2l-7 -11q-2 -4 -4 -7.5t-4 -7.5l-2 -4l-1 -2l-2 -6q-2 -8 -4 -15t-4 -15q-2 -11 -3 -22
l-2 -22q-1 -12 -1.5 -24t-2.5 -24q-2 -11 -3.5 -22.5t-2.5 -22.5t-1 -22.5v-22.5v-15l7 6q19 14 42.5 22.5t47.5 6.5q23 -2 42.5 -13t36.5 -28q13 -13 20 -29.5t11 -33.5q4 -18 5.5 -36.5t1.5 -36.5v-40l-1 -24l-3 -21q-1 -8 -1 -17t-2 -17q-3 -16 -11 -32l-3 -8
q-17 -42 -60 -57q-11 -4 -20 -5q-6 -2 -12 -3l-12 -2l-16 -1h-8l-20 -1q-6 0 -12 0.5t-11 2.5t-9.5 5t-9.5 6q-5 4 -9 7t-9 8l-13 13q-8 8 -14 16t-11 17q-5 11 -8.5 21.5t-6.5 21.5l-7 24q-2 6 -2.5 12t-1.5 12q-5 24 -6 48q-1 11 0.5 22.5t0.5 22.5q-1 12 -1 24v24
q0 11 0.5 22.5t0.5 22.5v10.5t1 10.5q-1 14 -1 27t2 26q2 23 3.5 46t5.5 46t8.5 46t11.5 46q5 20 12 40t21 36q16 17 38 25.5t44 11.5q25 3 45 2zM170 318l-7 -6l-12 -12l-2 -3l-3 -4l-5 -8l-4 -8l-1 -3l-1 -4q-8 -22 -9 -44t0 -45q1 -15 3 -30t5 -30l6 -24q11 -21 26 -37
l5 -5q7 -2 13.5 -4.5t14.5 -4.5l13 1l2 1l5 2l15 9l3 2l4 3l6 6l2 2l2 4l4 8q4 8 6 16.5t4 17.5q3 19 1.5 37t-2.5 38q-1 11 -2 22.5t-3 22.5t-3.5 21.5t-5.5 21.5q-3 8 -7.5 15.5t-11.5 12.5q-4 2 -7.5 5t-7.5 5l-3 2h-5h-9h-8h-10z" />
    <glyph glyph-name="seven" unicode="7" horiz-adv-x="301" 
d="M63 698q5 -2 11 -2.5t11 -1.5l15 -2h10q17 0 34.5 0.5t34.5 0.5t34.5 0.5t34.5 -0.5h14t11 -6q2 -5 0.5 -12t-2.5 -12l-1 -3v-11q-1 -7 -1 -13.5t-1 -13.5q-3 -23 -8.5 -45t-11.5 -44t-14.5 -43t-16.5 -42q-8 -22 -14.5 -44t-14.5 -45q-6 -18 -10 -36.5t-9 -36.5
q-6 -23 -12 -46.5t-11 -46.5q-2 -11 -4.5 -23t-4.5 -24q-2 -9 -2 -18t-2 -18l-4 -24l-4 -24q-1 -6 -1.5 -12t-2.5 -12q-2 -5 -3 -10.5t-2 -10.5q-1 -6 -1 -12t-1 -12v-2q0 -9 -3 -18q-1 -3 -4 -4q-2 -4 -8 -5t-9 0q-8 2 -14 6l-3 2l-4 2l-7 2q-5 2 -9 4t-9 4l-4 2l-5 1
q-8 2 -9 7q-2 10 1.5 18.5t6.5 17.5t4 18.5t3 18.5q2 10 3.5 19.5t3.5 19.5t5 19.5t5 19.5q6 20 9 40q2 10 3 19.5t3 19.5q2 9 4.5 18.5t6.5 17.5t6.5 17t4.5 18q4 16 7.5 32t8.5 32q6 18 9 37q1 5 1.5 10.5t2.5 10.5t3.5 10t3.5 10q8 23 17.5 45.5t19.5 45.5q5 11 7.5 21
t5.5 21l2 7q0 5 -1 10.5t-5 9.5l-4 3q-7 1 -13.5 2t-13.5 2q-6 1 -12 1t-12 1q-5 1 -10.5 2t-10.5 1l-45 3q-5 1 -9 1.5t-9 2.5q-4 0 -6 1l-6 1q-5 0 -8 3t-1 7t4 12v9l1 4l3 12l5 15q2 5 3.5 10t5.5 9q6 6 15 3z" />
    <glyph glyph-name="eight" unicode="8" horiz-adv-x="379" 
d="M207 709q3 0 9 -2h5q19 0 37 -6t29 -23l3 -5l2 -2q4 -4 7 -8l6 -8q13 -17 21 -40q4 -11 7 -21.5t5 -21.5q3 -20 1 -45q-1 -11 -2 -22.5t-3 -22.5t-3.5 -21t-5.5 -20q-6 -17 -18 -30q-3 -8 -7 -15t-9 -13q8 -7 15 -15.5t12 -17.5q6 -9 11.5 -19t8.5 -21q4 -11 4.5 -22.5
t0.5 -22.5v-48v-24t-1 -24l-3 -24q-1 -5 -1 -10.5t-1 -10.5q-1 -11 -4 -22t-8 -22q-8 -20 -18 -36q-13 -20 -31 -34t-41 -19q-22 -5 -43.5 -2.5t-42.5 9.5q-19 6 -35.5 16.5t-28.5 26.5q-18 23 -26 52q-6 10 -9 23q-3 11 -4.5 21.5t-2.5 21.5q-2 22 0 45q1 11 1.5 21t2.5 21
t3.5 21t4.5 20q3 11 7 21t10 19l3 4l7 15q3 7 6.5 13.5t7.5 13.5l6 11q-10 12 -19.5 24.5t-14.5 26.5q-2 5 -2.5 10.5t-1.5 10.5q-1 6 -1.5 12t0.5 12v4v3q0 23 0.5 45.5t5.5 44.5l1 5q-1 1 0 4q3 8 3.5 15.5t3.5 15.5t6.5 14.5t7.5 13.5q8 14 14.5 27.5t20.5 22.5
q18 11 36 14q10 2 19.5 1.5t19.5 -1.5h6zM183 645l-8 -1q-7 -7 -14 -23q-16 -33 -22 -71q-2 -11 -3 -21t-2 -21q-1 -10 -1.5 -19.5t1.5 -19.5q1 -5 2 -8.5t3 -7.5l3 -7l2 -4l1 -2l2 -3l10 -6l14 -7l5 -2l6 -2h3h7h7h2h3l9 1h2h1l5 1h1l5 2q6 2 10 5l3 3l4 4q5 5 9.5 10.5
t6.5 11.5q2 7 1.5 14t1.5 14q1 4 6 7q0 5 1 7l1 11q1 5 1.5 10.5t0.5 10.5q0 8 -0.5 15t-1.5 15q-2 8 -4 12q-2 5 -4.5 9t-4.5 9q-6 15 -17 30q-4 5 -8.5 10t-7.5 11q-5 1 -10.5 1h-11.5h-3l-5 -1zM173 344l-2 -1l-2 -1l-4 -3l-2 -2l-11 -16l-3 -7l-1 -2l-1 -3q-2 -8 -4 -15
t-4 -15t-4 -17l-4 -18q-4 -23 -5 -47t3 -47l2 -12l2 -12l1 -12l2 -4l4 -10t5 -10q11 -16 25 -21l4 -1l4 -1l11 -3q12 -3 22 -3q5 0 10 1h2l4 2l4 3l6 4l5 4l2 6q2 5 2.5 11t2.5 11l6 21q3 11 6 22.5t5 23.5q9 43 4 90q-2 20 -8.5 35.5t-20.5 28.5q-13 11 -31 16l-5 1h-2
l-6 1q-5 1 -15 1h-3h-3z" />
    <glyph glyph-name="nine" unicode="9" horiz-adv-x="357" 
d="M179 692q19 -1 37 -9l6 -2q5 -2 9 -4.5t8 -5.5l6 -3q18 -12 28 -27q17 -26 25 -59q2 -8 3 -17t3 -18q2 -12 3.5 -24t3.5 -24q6 -48 3 -97l-1 -16v-9q0 -12 1 -24t0 -24l-2 -46q-1 -11 -2 -21.5t-3 -21.5q0 -6 -0.5 -12t-0.5 -12q0 -8 0.5 -16.5t0.5 -16.5l-2 -30
q-5 -47 -18 -92q-3 -11 -6.5 -21.5t-9.5 -19.5q-13 -19 -30 -29q-23 -15 -50 -19q-26 -5 -52 0q-17 3 -30 13q-14 5 -26 15q-7 7 -13.5 15.5t-8.5 18.5l-4 24l-4 24q-2 13 -2 25.5v25.5v19.5t1 19.5q-1 4 -1.5 8t1.5 8q2 8 10.5 10.5t15.5 0.5q8 -2 14.5 -4.5t13.5 -5.5
q2 -1 4 -1.5t4 -2.5q7 0 8 -5q1 -7 1 -13.5v-13.5t0.5 -13.5t1.5 -13.5l4 -29l3 -24l3 -13l10 -10t13 -8q2 -1 4 -1t4 -1l4 -1l3 1l2 1l3 2l7 5l1 1l3 3l7 7l1 2l2 3q2 4 4 7.5t4 7.5q4 8 6.5 18t4.5 20q7 25 8 45q1 6 1 12t1 12q1 5 2 10.5t3 10.5q2 6 3 12l2 12
q1 5 1 10.5v10.5q0 6 0.5 12t0.5 12v10q-24 -15 -54 -15q-21 0 -41 7.5t-37 20.5q-8 6 -16 13t-15 15q-14 18 -22 42q-8 23 -11.5 46.5t-4.5 46.5q-2 24 0 48q1 11 2 22.5t2 22.5q1 12 0.5 24.5t1.5 24.5q3 20 12 38q10 19 28 30q7 4 14 7t15 6q4 2 7.5 3t12.5 3l11 3
q6 2 10 2h5q10 1 21 0zM140 624l-12 -4l-1 -1q-6 -8 -8 -13l-3 -7l-1 -2v-5q0 -7 -5 -12q-2 -5 -2.5 -10t-1.5 -10v-17q0 -12 1 -24t1 -24l1 -46q0 -23 4 -42q2 -10 4.5 -20t7.5 -18q6 -11 15 -18l4 -1q10 -2 15 -4t13 -4q3 -1 7 -1h5h1l3 1l4 2l2 1l14 9q-4 -2 -1.5 -1
t3.5 2l5 3l1 1l8 14l3 6l2 5q3 8 4 17l2 18q1 10 1.5 19.5t0.5 19.5t-0.5 19.5t-1.5 19.5t-1 19.5t-2 19.5q-6 40 -33 75q-3 3 -5.5 6t-5.5 6l-4 2q-10 4 -15 5l-5 1h-2l-7 1h-4h-1z" />
    <glyph glyph-name="colon" unicode=":" horiz-adv-x="157" 
d="M76 491q5 1 9.5 1h9.5q13 0 17 -11q4 -9 4 -21v-12v-3v-4v-3l1 -8v-1q2 -8 1.5 -17.5t-8.5 -13.5q-7 -4 -20 -4q-4 -2 -8 -2h-9q-5 1 -9 2t-8 3q-17 9 -19 31q-1 6 -0.5 10t-0.5 9v7v5q0 5 -1 8q-2 4 -1 9.5t5 7.5q2 1 6 -1q2 6 6 7q5 2 8.5 1.5t7.5 -1.5zM83 95
q8 -1 15.5 -3t12.5 -8q7 -8 9 -18.5t0 -21.5l-2 -11l-1 -4q-1 -4 -1 -7.5t-1 -7.5l-4 -8t-6 -6q-7 -4 -18 -4q-5 1 -8.5 1h-8.5q-7 -2 -13 0l-4 3l-4 1q-8 5 -11 14q-2 8 -2 17.5t1 17.5q0 3 0.5 8.5t1.5 11t3 10t6 5.5l2 2q7 7 17 7t18 -1z" />
    <glyph glyph-name="semicolon" unicode=";" horiz-adv-x="167" 
d="M90 501q8 0 12 -1l10 -2t8 -6q3 -4 4 -8.5t1 -9.5v-11l1 -5q2 -10 1.5 -21t-4.5 -21q0 -9 -5 -13q-9 -9 -20 -7q-7 -2 -13.5 -1.5t-13.5 1.5q-4 1 -8 1t-8 2q-9 7 -11 14q-4 11 -4.5 23t0.5 23l1 8l-2 4q-1 4 -1 9t3 8l4 2q4 6 7 8q6 5 14.5 5.5t16.5 -1.5zM48 125
q5 0 10 -1t10 -1l19 -1l19 -2l7 -1q6 0 8 -2q4 -3 5 -6t2 -8q2 -10 0 -19l-1 -7l1 -5q2 -6 2 -9l1 -11q0 -11 1 -22.5t0 -22.5q0 -6 -2 -14q-1 -7 -1.5 -13t-2.5 -12q-3 -11 -7 -22.5t-8 -22.5q-2 -5 -4.5 -10.5t-4.5 -10.5l-2 -8q-1 -2 -1 -4t-1 -4l-2 -3q-1 -2 -1.5 -5
t-2.5 -5q-7 -10 -18 -5q-8 4 -17 7q-6 2 -7.5 7t0.5 10l1 2q0 3 1 5q7 14 8.5 29.5t6.5 29.5q7 17 11 31l3 12h-9q-5 0 -9.5 0.5t-8.5 3.5q-2 2 -4 8l-2 8q-2 7 -4.5 13.5t-4.5 13.5q-2 8 -2 15.5v15.5q0 5 -1 10t1 10l2 4l-1 3q-2 3 0 6l1 6q1 6 8 6z" />
    <glyph glyph-name="equal" unicode="=" horiz-adv-x="430" 
d="M349 433h5q3 2 6.5 0.5t4.5 -4.5q3 -20 2 -37q0 -4 -0.5 -7.5t-0.5 -7.5v-14q0 -3 -2.5 -6t-6.5 -2q-3 0 -7 2l-4 -1q-9 0 -18 -0.5t-18 -1.5t-17.5 -2.5t-17.5 -2.5q-18 -2 -36 -3t-36 -3q-17 -2 -33 -4t-33 -3q-8 -1 -16.5 -2t-16.5 -3q-10 -2 -15 -2q-6 -2 -9 -2
l-7 -1q-4 -2 -7 -2l-1 -1q-5 -2 -9 -0.5t-6 6.5t-1 9.5t0 9.5t-2 9t-2 9q-2 23 1 42q2 7 7 7q3 0 6 -0.5t7 -1.5q18 1 36 3l36 4l70 6q18 2 36 3l36 2l35 1q8 0 17 0.5t17 -0.5v1zM341 293h9q4 0 6 -1l10 1q11 2 11 -8q0 -4 1 -7.5t1 -7.5t0.5 -7.5t0.5 -7.5t-0.5 -7.5
t-0.5 -7.5q0 -10 -1 -15q0 -8 -6 -9q-4 -1 -9 -1.5t-10 1.5l-7 -1l-52 -3q-17 -1 -34.5 -3.5t-34.5 -4.5t-34.5 -5.5t-35.5 -3.5q-9 0 -18 0.5t-18 1.5q-10 -2 -15 -2t-10 -1l-10 -2l-4 -1l-3 -1q-4 -2 -6 -2q-5 0 -9 3q-2 2 -2 5v6v19q1 10 1 19.5t1 19.5q0 8 7 6q1 1 4 1
q19 1 37.5 2.5t37.5 4.5q17 2 34.5 4t34.5 4q9 1 18 2.5t18 3.5t18 2.5t18 1.5t18 1.5t18 0.5z" />
    <glyph glyph-name="question" unicode="?" horiz-adv-x="301" 
d="M183 735q23 -2 44 -9.5t35 -27.5q13 -19 14 -40q1 -12 0.5 -24t-0.5 -24v-49.5t-1 -49.5q-1 -23 -2.5 -45.5t-9.5 -43.5q-4 -11 -9 -21t-13 -18q-14 -15 -32 -26q-5 -3 -10.5 -6t-10.5 -5l-9 -3h-1l-7 -3l-2 -2l-7 -7l-2 -2l-2 -2l-1 -2l-1 -3q-2 -5 -4 -15
q-3 -19 -6.5 -37.5t-3.5 -38.5q0 -10 0.5 -19.5t1.5 -19.5l1 -20q0 -6 -0.5 -11t-2.5 -10q-7 -14 -21 -20t-28 -6h7l-5 -1l-6 -2q-14 -3 -25 -3q-10 0 -14 6q-4 3 -2 8q0 14 0.5 28.5t1.5 28.5q1 13 1 25.5t3 25.5q2 7 3.5 13.5t2.5 13.5t1.5 13.5t2.5 13.5q6 25 15 47l1 1
q2 15 10 28q11 18 32 31q9 5 18.5 8t19.5 7l3 1l4 2l3 2l2 2l2 2l1 1l2 2l1 2l2 4l2 4l1 2l3 8q2 5 4 9.5t4 9.5l6 16l1 16l1 6v7v15t-1 15l-3 32l-3 32q-1 8 -1.5 15.5t-2.5 15.5q-4 13 -13 17q-5 3 -11 5l-12 4h-7.5t-8.5 -1h-3l-7 -2l-2 -1l-2 -1l-3 -3l-4 -7l-2 -4
l-3 -8q-2 -5 -2.5 -10t-1.5 -10v-21l-1 -27v-13l1 -3l1 -5q1 -6 -2 -13q1 -12 -4 -23q-3 -5 -5 -5t-8 4h-2l-6 1q-4 1 -7.5 2t-7.5 2q-8 2 -15.5 5.5t-15.5 3.5t-6 8q-1 1 -1 3q-1 10 -2 19.5t1 19.5l3 36q1 9 1 18t2 18q1 5 2 9t3 9l3 9l2 5q2 3 2 4t-1 -1q6 19 22 28.5
t33 14.5q40 11 78 7zM107 89q9 2 20 2t19 -7q7 -2 9 -4q4 -7 6 -17q2 -9 1 -19.5t-6 -18.5q-5 -10 -14 -13l-7 -1q-7 -4 -15 -5.5t-16 -1.5l-9 1q-5 -1 -9.5 -1.5t-9.5 1.5q-8 3 -9.5 10t-2.5 14q-2 8 -3.5 17t-1.5 17q0 2 2 4q0 4 3 9q3 4 7 5.5t8 3.5q5 2 9.5 2.5t9.5 1.5
h5h4z" />
    <glyph glyph-name="at" unicode="@" horiz-adv-x="702" 
d="M370 738q26 2 52 -3h9t9 -1l11 -3q13 -2 25.5 -5.5t24.5 -8.5q4 -2 10 -6l18 -9q18 -10 34.5 -22t29.5 -28q16 -21 24 -41q9 -20 16.5 -40t11.5 -41q2 -13 2.5 -25t0.5 -25q0 -12 1 -24t3 -24t3 -24t0 -24l-2 -18l-2 -18q-2 -20 -4.5 -39.5t-7.5 -39.5t-12.5 -38
t-17.5 -35q-10 -18 -24 -35t-31 -28l-12 -6l-7 -3l-8 -4q-12 -5 -22 -5l-6 -2l-14 -4l-25 -3q-10 -2 -15 -2h-7h-1q-5 -2 -11.5 -2.5t-11.5 3.5q-3 1 -3 4l2 13v2l-1 18q-9 -11 -18 -16q-19 -12 -41 -11q-23 1 -46 6.5t-39 24.5q-3 4 -5.5 7.5t-4.5 7.5l-7 8q-26 31 -37 72
q-5 23 -8 46t-5 46q-2 21 -2 42t3 42q3 17 8.5 34.5t13.5 33.5q4 18 12.5 34.5t22.5 28.5q17 14 38 18.5t42 -1.5q14 -4 27.5 -11.5t24.5 -17.5q0 16 3 33q0 3 3 6q0 2 1 3q3 3 6.5 5t6.5 4q4 2 8 3.5t8 3.5q8 3 14.5 7t14.5 6t8 -6v-19l1 -4q3 -5 2 -11v-44v-23
q2 -12 2 -24.5v-25.5l1 -24q1 -12 1.5 -24t2.5 -24l1 -7v-3l2 -12l3 -27q2 -24 3 -48.5t1 -49.5v-24t2 -25q4 1 7.5 1t7.5 1l11 11l18 24l8 14l7 16l4 9l2 5l6 16l6 16l8 20l2 4l1 2l2 9q2 10 2 19.5t2 19.5q2 11 -1 20l-5 20q-2 11 -1.5 22.5t-0.5 22.5l-2 18v2l-2 12
l-4 23l-8 38q-4 6 -6 10l-8 16l-10 16l-6 8l-3 3l-5 6l-15 13q-7 6 -13 12.5t-13 12.5l-2 2q-5 2 -10 3t-10 3t-10.5 3t-10.5 2l-5 1l-4 1l-7 1q-21 1 -42 0l-20 -1l-7 -1l-9 -1q-23 -3 -45 -9q-10 -2 -19.5 -4t-19.5 -5l-3 -2l-1 -1q-7 -4 -13.5 -7.5t-12.5 -8.5l-4 -3
l-1 -1l-6 -5l-12 -12l-4 -4l-5 -7l-10 -14q-10 -15 -17 -30.5t-11 -32.5q-6 -23 -9 -45q-2 -11 -2 -22.5t-1 -22.5q-2 -22 -4 -43.5t-2 -43.5v-22.5t1 -22.5v-4q4 -16 9 -31t11 -30q8 -21 17.5 -42t19.5 -41q8 -17 18 -33.5t23 -30.5l2 -1q9 -5 17 -8l3 -1l2 -1l9 -3l18 -6
l36 -10l10 -2h3h4q6 -1 12 -1h12q11 0 22.5 0.5t22.5 1.5t22.5 2.5t22.5 1.5l24 1l12 1q9 1 18 -6q7 -5 5 -16l4 -16l3 -15q0 -2 -0.5 -5t0.5 -5q3 -5 -0.5 -11t-10.5 -6q-8 0 -16.5 -0.5t-16.5 0.5h-8l-28 -4q-26 -3 -53 -3q-43 0 -88 4.5t-81 31.5l-7 5l-10 6l-10 6
q-8 5 -16 12t-13 15q-3 5 -6.5 9t-6.5 9l-11 19q-6 11 -12 20.5t-11 20.5q-10 20 -17.5 41.5t-16.5 42.5q-5 11 -9 21t-7 21q-4 16 -4 37l-2 8q-3 12 -3 23v49.5t2 48.5l2 24t3 24q2 11 3.5 23t3.5 23q7 37 29 71l12 18l5 10l12 21q3 5 6 9.5t7 9.5l6 6q2 4 6 7.5t6 5.5
q8 7 19 13l5 2l4 2l18 9q7 3 13.5 5.5t13.5 4.5q8 3 15 6t15 5l21 7q14 5 27.5 8t27.5 6l5 1zM326 500l-3 -1l-3 -2l-3 -3l-1 -1q-2 -2 -3.5 -4.5t-3.5 -4.5l-2 -3l-3 -4l-5 -9l-2 -3l-1 -3l-6 -21q-3 -11 -6 -21.5t-5 -21.5l-2 -8q-1 -5 -1.5 -9t-0.5 -9t0.5 -10t0.5 -11
t-0.5 -12t0.5 -12q2 -20 7.5 -40t12.5 -39q3 -8 6 -15t7 -13q4 -8 10 -13l5 -5l1 -1l3 -2l7 -4h1l4 -1l4 -1h2h7h8l8 1l21 13l7 5l2 2l2 2l1 1l5 8q1 4 1 8v9q0 9 -0.5 18t0.5 18l1 4v8q0 23 0.5 45.5t-1.5 45.5l-3 28l-1 2q-6 21 -18 39q-5 9 -12 16.5t-15 15.5
q-13 13 -25 21h-3h-2z" />
    <glyph glyph-name="A" unicode="A" 
d="M208 713q8 3 17.5 1.5t14.5 -10.5q3 -6 3.5 -13t1.5 -14v-2l2 -8q3 -11 6.5 -21t6.5 -21l12 -45q3 -11 6 -22.5t5 -22.5q7 -48 12 -96q2 -12 3 -24t3 -24t4.5 -24t5.5 -24l6 -24t5 -24l9 -46q2 -11 4.5 -22.5t5.5 -22.5l5 -20q1 -5 2 -9t2 -9q2 -10 4.5 -20t4.5 -20
l10 -43l9 -43l5 -16l1 -6v-2l1 -2l1 -5l1 -4v-1q0 -5 -5.5 -8.5t-10.5 -4.5q-10 -5 -20 -5q-8 -4 -14 -4q-5 0 -9.5 0.5t-8.5 3.5q-8 0 -10 5l-1 1l-1 2q-1 1 -1.5 2t-1.5 2q-4 4 -6 14l-6 25q-2 7 -4 13.5t-4 13.5q-3 10 -5.5 19.5t-4.5 19.5l-3 12h-16l-25 1q-27 1 -54 6
l-12 2t-12 3l-24 6h2l-5 1q-3 -20 -7.5 -38.5t-9.5 -38.5q-3 -11 -3 -21v-8v-6l1 -6q2 -5 2 -8t-3 -7q-2 -2 -7.5 -4.5t-10.5 -1.5q-8 0 -12 1q-5 0 -10.5 1t-11.5 1h-17h-9t-9 2q-3 1 -3 5q1 5 1.5 9.5t1.5 9.5v2l2 5v2l2 13q0 6 1 9q1 4 1.5 8t1.5 8q0 2 3 5l1 4q0 6 1 9
l3 8l6 23l14 76q3 19 5.5 37.5t5.5 37.5q1 5 1.5 9t2.5 9l4 16q2 9 3.5 18t3.5 18q8 47 17 93t20 93l5 23q2 5 4 10.5t4 10.5l9 26l1 4q1 5 2 9t2 9l3 16q1 2 1 4.5t1 4.5l3 8l3 17q1 3 2 7.5t1 6.5q-1 4 0.5 8t1.5 9t5.5 7t8.5 2q4 0 6 -1h3h3l5 1q5 2 9 3t9 2zM186 490
l-1 -2l-6 -28l-2 -7q-3 -18 -7 -35.5t-6 -35.5l-3 -19q-1 -5 -2 -9t-1 -9l-3 -36q-1 -8 -2.5 -16.5t-3.5 -16.5l-6 -39l-4 -18h3l23 -4q10 -2 19.5 -5.5t19.5 -5.5l5 -1h1l9 -1l24 -1l11 -1q-6 32 -9 67q-1 11 -1 23t-2 23q-3 11 -6 22.5t-5 22.5q-2 6 -2.5 12t-2.5 12
l-5 22q-5 24 -6 48l-2 25l-1 21q-1 6 -1.5 11.5t-0.5 11.5q0 5 -0.5 10.5t-1.5 10.5t-2 9t-2 9v2l-10 -37l-7 -23z" />
    <glyph glyph-name="B" unicode="B" horiz-adv-x="388" 
d="M147 700q4 0 7 -0.5t7 -0.5q6 0 8 -1h12q7 0 11 -1q8 -1 15.5 -2t15.5 -3q15 -2 28 -6q31 -13 47 -39q8 -11 12 -22l3 -6q6 -9 9 -19q5 -10 9 -20.5t6 -21.5t3 -21.5t1 -21.5q1 -12 1.5 -24.5t-1.5 -23.5q-2 -10 -1.5 -19t0.5 -19q0 -11 -1 -20.5t-6 -19.5
q-6 -11 -16 -20q-2 -3 -3.5 -6.5t-3.5 -5.5q-7 -9 -15 -15.5t-18 -11.5q-5 -3 -9.5 -5.5t-9.5 -4.5q0 -1 1 -1l3 -1.5l3 -1.5l3 -2q3 -3 9 -7l3.5 -3.5l3.5 -3.5q1 0 3 -2l23 -18q17 -14 23 -35t7 -42q0 -23 2 -45t0 -45q-2 -25 -10 -45l-9 -14q-5 -15 -13 -28
q-5 -5 -9 -9.5t-10 -9.5q-3 -3 -7 -5q-2 -2 -4 -2.5t-4 -2.5h-2q-6 -4 -12.5 -7.5t-14.5 -5.5q-1 0 -3 -0.5t0 0.5l-7 -3q-5 -1 -9.5 -1.5t-9.5 -0.5h-13q5 0 2.5 -0.5t-3.5 -0.5h-16l-10 -1q-28 -3 -53 1q-4 0 -8 2h-9.5t-9.5 1h-28q-11 0 -14 8q-3 5 0 10q0 2 0.5 4.5
t0.5 4.5q2 4 2.5 8t1.5 8v12q-1 9 -1.5 18t-0.5 18q0 10 0.5 19.5t0.5 19.5q0 9 -0.5 18t-1.5 19q-2 40 -0.5 79t2.5 79q0 24 -0.5 48t1.5 47q1 9 1 18.5t1 18.5q0 7 -1 11v17q0 5 -0.5 8.5t-0.5 7.5q-5 35 -6 70v17t-1 17v9t-1 9v8t-1 9q-2 8 -2 16t-2 16q-1 8 -1 15t-2 14
q-2 5 6 7q3 4 8 4q2 0 4 0.5t4 0.5h7q2 0 3 0.5t3 0.5q1 0 2 0.5t3 0.5l31 3q8 0 15.5 0.5t15.5 0.5zM159 631q-6 -1 -13 -8q-1 -3 -1 -9q-2 -20 0 -39v-18t1 -18l2 -40t1 -40t0.5 -40t1.5 -40v-5q2 -3 6 -7q1 0 1 -1q17 2 32 0q5 -1 9 -1h9h13l1 1q1 0 1.5 0.5t1.5 0.5l4 2
l6 5q0 1 1 2.5t0 -0.5q2 4 3.5 6t3.5 5l2 4l1 1q2 6 3 12l2 12q1 11 2 23t1 23v24.5t1 24.5q0 23 -0.5 46t-8.5 45q-1 0 -1 1l-12 14l-3.5 3.5l-3.5 3.5l-1 1q-2 2 -4 2q-2 2 -4 2q0 1 -2 1l-10 3q-6 2 -10 2l-4 1h-21zM157 289q-2 -2 -3 -2q-1 -1 -2 -1v-6q0 -25 -2 -49
t-3 -48v-47q0 -5 -0.5 -11t-0.5 -12q0 -5 0.5 -9.5t1.5 -9.5q1 -4 1.5 -7t0.5 -6q0 -8 1 -11q1 -5 2.5 -10t1.5 -10q0 -3 1 -5v-1v-4q0 -2 0.5 -3t0.5 -3q1 -1 2 -1.5t2 -2.5l2 -2q1 0 2 0.5t3 0.5h28q5 1 10.5 1.5t11.5 0.5h4l2 1l1 1t2 1.5t0 -0.5l3 3q2 2 3 2.5t2 2.5
q6 7 12 12t9 13q2 6 2 12v12q0 5 -0.5 10t-0.5 10q0 6 -0.5 11.5t-0.5 10.5t0.5 10.5t0.5 10.5q-2 11 -2.5 22.5t-2.5 22.5l-6 36l-6 9q-5 8 -10.5 16.5t-13.5 14.5q-4 3 -8 5.5t-9 4.5q-4 2 -8 2h-8q-7 1 -13.5 1t-12.5 1z" />
    <glyph glyph-name="C" unicode="C" horiz-adv-x="348" 
d="M205 723q8 0 12 -1q6 -1 11.5 -2t10.5 -3l21 -7l9 -3q2 -1 4 -1.5t4 -2.5q7 -6 14 -18q4 -6 7 -12.5t6 -13.5q4 -9 6 -18q2 -4 4 -7.5t4 -7.5q2 -7 3 -14l2 -14l4 -28q1 -6 1.5 -12t0.5 -13l1 -11q0 -3 -0.5 -6t-0.5 -6q0 -7 -5.5 -11t-11.5 -6q-7 -2 -13 -4t-13 -1
q-3 0 -9 2q-5 -1 -15 -1h-7h-3h-1q-2 0 -5.5 1t-4.5 4q-1 5 1.5 10t3.5 10l1 13v10v11l-2 12l-3 17q-2 2 -2 4q-1 3 -2 7t-3 7l-8 12q-7 9 -14 13q-4 2 -7.5 3t-8.5 3q-4 1 -11 1q-5 -1 -15 -5l-3 -1q-3 -1 -5 -5l-2 -3q-2 -3 -2.5 -7t-1.5 -8l-2 -17q0 -5 -1 -10.5
t-2 -10.5l-3 -16v-3q0 -5 -1 -10l-2 -10t-1 -10.5v-10.5t-0.5 -10.5t-0.5 -10.5q-1 -6 -1 -12v-12l-1 -9v-18q0 -6 -0.5 -12t-1.5 -12q-1 -5 -1 -10.5v-10.5q-1 -23 -2 -45t-4 -45q-2 -11 -2 -23v-24t-0.5 -24t-0.5 -24q0 -11 0.5 -22.5t-0.5 -22.5t-0.5 -21.5t2.5 -21.5
q1 -3 1 -6.5t1 -6.5l3 -7l6 -9l3 -3l3 -3l4 -4l2 -2l5 -3l2 -1l7 -3l3 -1l9 -3h9h4q8 2 12 4q3 1 9 5l4 12q1 4 1 7.5t1 7.5q2 10 4 15q2 6 1 11q-1 3 2 5.5t8 4.5q4 3 11 3q4 0 7.5 -1t7.5 -1h6h6h12q5 0 9.5 -2.5t4.5 -7.5l-3 -43v-9t-1 -9t-1 -9t-1 -9q-2 -11 -5.5 -21
t-12.5 -18l-1 -1l-3 -2l-4 -3l-10 -8q-5 -3 -10 -5.5t-10 -4.5q-17 -6 -32 -6h-22l-24 2t-24 3q-9 2 -17 4.5t-15 7.5q-6 0 -14 4q-4 2 -7 5l-6 6q-4 4 -7 8t-6 9t-5.5 9.5t-4.5 9.5t-2 10.5v10.5l-2 22q-1 6 -1.5 12t-2.5 12q-1 5 -1 10.5v10.5t-0.5 10.5t-0.5 10.5l-1 20
l-1 22q-1 6 -1 12v12q0 11 1 22.5t2 22.5q1 8 1 15t1 15l3 24v7v10q-3 22 -3 46q0 11 0.5 22.5t1.5 22.5t0 23q-1 5 -1 10.5v10.5l2 34q1 10 2 19.5t2 19.5q1 11 2 21.5t5 21.5q2 5 4 10.5t4 10.5t3.5 10.5t3.5 10.5q5 10 10.5 19.5t13.5 17.5l1 1q3 6 9 12q16 16 38 19l5 2
q4 1 3 1l1 1q13 5 25 5h4q-3 -1 4 0z" />
    <glyph glyph-name="D" unicode="D" horiz-adv-x="410" 
d="M110 713q4 0 8.5 -0.5t6.5 -5.5v-1q3 1 2 1h17h9t9 -1q10 0 19.5 -2t20.5 -4q2 0 4 -0.5t4 -0.5q3 -1 -1 0q2 -1 7 -1q1 0 1.5 -0.5t1.5 -0.5q4 -1 7 -2t7 -2q8 -4 16.5 -7t16.5 -8q7 -5 13.5 -11t13.5 -12q7 -5 13.5 -11t11.5 -14q12 -13 19 -29q5 -10 8 -20.5t6 -21.5
q2 -11 4.5 -23t4.5 -23q5 -26 7.5 -50.5t2.5 -50.5v-48q-1 -12 -1.5 -24t-2.5 -24q-3 -24 -3 -47q-1 -6 -1 -12t-1 -12q0 -6 -1 -11.5t-1 -11.5q0 -23 -1 -46t-6 -46l-6 -22q-3 -14 -10 -23q-3 -5 -5.5 -10t-6.5 -10q-5 -7 -10.5 -12.5t-11.5 -10.5q-10 -8 -20.5 -13.5
t-21.5 -10.5q-8 -3 -14.5 -5.5t-13.5 -4.5l-14 -4t-14 -2q-2 -1 -6 -1l-8 -3q-6 -2 -12 -1.5t-12 1.5h-35q-3 -1 -10 -1q-26 -5 -53 -3q-4 1 -9 1.5t-6 5.5q-1 2 -0.5 4t0.5 4q-2 3 0 10v1q-2 1 0 3q0 17 0.5 35t-0.5 35v28l3 29q2 15 3.5 29.5t2.5 29.5t1 29.5t1 29.5
q0 7 0.5 14t-0.5 12t-1 15v8q-1 10 -1 20v20q-1 11 -2.5 22.5t-2.5 22.5v12t-1 12l-3 23q-1 12 -1 24t-2 24q-2 13 -2.5 25t-1.5 24v27q0 6 -0.5 12t-0.5 12t0.5 12.5t0.5 12.5q1 6 0.5 12t0.5 11q1 13 1 25t1 24q1 0 1 1q-7 3 -1 9q4 5 13 7q3 1 6 0.5t5 -0.5q5 0 10 0.5
t10 0.5t8.5 0.5t8.5 0.5zM136 641q2 1 1 1t-5 -2q0 -6 -0.5 -12t-0.5 -13q-2 -14 0 -27v-18.5t1 -18.5q0 -7 0.5 -13.5t0.5 -13.5v5q1 -16 2 -31.5t3 -31.5q1 -8 1.5 -16.5t0.5 -16.5q0 -7 -0.5 -13.5t-0.5 -14.5t0.5 -15t0.5 -15v4q1 -17 3 -33t2 -33q-1 -20 -2 -34t-2 -30
q0 -16 -0.5 -31.5t-1.5 -31.5q0 -15 -0.5 -30.5t-0.5 -30.5q0 -12 1.5 -24t1.5 -24q1 -2 4 -5l1 -1l1 -1h10q1 1 4.5 1.5t-0.5 -0.5q2 0 4.5 0.5t4.5 0.5h7l13 3l16 4l5 2q3 2 6.5 2.5t6.5 2.5h2l4 2q1 0 2 1t2 1t1.5 0.5t-0.5 0.5q4 3 7 7q2 3 3.5 5.5t3.5 4.5q5 6 7 12v7
q1 5 1 10.5t1 10.5q0 5 1 10.5t2 10.5l3 22v10.5t1 10.5q1 10 2 19.5t1 19.5q-1 7 -1.5 13.5t0.5 13.5q0 3 0.5 6t0.5 7v11l3 27q1 7 1 13v13q0 13 -0.5 26t0.5 27q1 11 1.5 22.5t0.5 22.5q-1 17 -3.5 32.5t-6.5 31.5l-6 28t-10 28q-8 12 -16.5 23.5t-19.5 20.5
q-11 8 -26 15l-5 3q-3 0 -5 2q-4 1 -7.5 2t-7.5 2l-11 3z" />
    <glyph glyph-name="E" unicode="E" horiz-adv-x="316" 
d="M272 694q5 2 10.5 2t7.5 -4l1 -1q3 -1 4 -4q3 -6 3 -12v-15q0 -4 -0.5 -8t0.5 -8q2 -9 -2 -14q-2 -4 -6.5 -5.5t-9.5 -2.5h-4l-5 -1q-3 0 -11 -2l-3 -1q-5 -1 -15 -1q-4 -1 -8 -1h-9h-1l-5 -1h-3h-9h-1q-6 -2 -12.5 -2h-13.5q-9 0 -18 0.5t-18 1.5h-2l-5 -2l-3 -5l-6 -11
l1 -15q3 -50 3 -99q0 -24 -1 -48t-1 -48v-12l4 -1q8 -2 15 -2t15 -1t15 -1t15 -1q5 0 15 -2h6q2 0 2.5 -0.5t2.5 -0.5l4 -1q8 0 10 -6q1 -2 0.5 -3.5t-0.5 -3.5q1 -6 2 -11.5t1 -11.5v-21q0 -4 -4 -6.5t-6 -4.5q-10 -3 -18 -2l-6 1h-7l-8 1q3 -1 0 0t-4 1h-9t-8 1t-6.5 1.5
t-6.5 0.5q-7 0 -13.5 0.5t-12.5 0.5v-11l2 -55q0 -8 0.5 -15t0.5 -15v3l2 -24v-27v-3l4 -28q2 -10 4 -19.5t3 -19.5q0 -5 0.5 -9t0.5 -9l17 -3h8l12 -1l60 1h20q8 0 12 -1l3 -1h2q13 0 13 -10v-22q0 -4 1 -7.5t1 -7.5t-4 -6.5t-7 -4.5l-9 -3q-5 -2 -9.5 -3t-8.5 -2
q-11 -1 -22.5 -0.5t-22.5 1.5l-51 1q-5 0 -9 0.5t-9 0.5q1 0 -3 -0.5t-2 -0.5l-8 -1q-15 -3 -28 1q-8 -2 -15 0q-6 0 -10 4q-11 2 -11 11q0 17 -1 34.5t-2 34.5l-2 37v9t-1 9l-2 17q-2 18 -4 36.5t-4 37.5t-2.5 37.5t-0.5 37.5q0 24 -1 48t-1 48q0 11 0.5 22.5t1.5 22.5
q1 9 1 18t1 18l-1 6q0 8 -1 16.5t-1 16.5v15l1 15q0 4 0.5 7.5t0.5 7.5v18v18t1 18v15q0 3 0.5 6.5t0.5 6.5l-1 7q0 2 -0.5 3.5t-0.5 3.5l1 5q-4 3 1 8q3 3 6 4.5t6 3.5q6 5 15 3q5 1 10.5 1t10.5 1l5 1h4q13 2 25.5 2t25.5 1l31 2h15t14 1t14 1h13l14 1h9z" />
    <glyph glyph-name="F" unicode="F" horiz-adv-x="356" 
d="M227 717q10 0 19 -1t19 -1h16h12q6 0 9 -1l2 -1q5 2 10 0q4 2 9 2.5t6 -3.5q1 -5 1 -9v-9l1 -7l1 -10l1 -4q1 -5 1.5 -8.5t-0.5 -8.5l1 -9q0 -4 -4 -6q-6 -5 -19 -3h-8q-10 2 -19.5 1.5t-19.5 -0.5h-17q-8 -2 -16.5 -1.5t-15.5 0.5h-14l-25 -1q-10 0 -19.5 0.5t-19.5 0.5
l-4 -11l-7 -25l-5 -14l2 -17l2 -33l2 -18l2 -18q1 -8 1 -16.5t1 -16.5l1 -6h3q1 0 3.5 0.5t-0.5 -0.5l9 2l9 1l16 2q7 2 13.5 3t13.5 2h11h2l11 1q13 2 25.5 3.5t25.5 -0.5h3q5 2 10 2t6 -4q0 -4 4 -12q2 -3 2 -6t1 -6t1 -6t1 -6l2 -7q0 -5 1 -6q3 -3 1 -6t-5 -5
q-5 -4 -14 -4q-2 -2 -5 -2.5t-5 -1.5l3 1l1 1q-7 -4 -17 -4q-26 -6 -51 -9h-1l-6 -1l-7 -1l-13 -1l-7 -1q-3 -1 -6 -1.5t-10 -1.5q-5 -1 -9.5 -2t-9.5 -1h-2l3 -30q1 -13 1.5 -25.5t0.5 -25.5l1 -99l1 -47q0 -12 -1.5 -24t-1.5 -24q0 -11 -0.5 -22.5t-0.5 -22.5t-0.5 -23
t-3.5 -23q-2 -10 -13 -14t-19 -4h-9h-13q-13 0 -23 3t-8 11v3l3 39q1 9 1 18t1 18t1.5 18t0.5 18v39q0 11 -1.5 21t-1.5 21v39q0 20 0.5 39t-0.5 39q0 12 -1 24l-2 24t-0.5 24t-0.5 24q-1 11 -2 22.5t-1 22.5q0 6 0.5 12t0.5 12v24q0 12 0.5 24t-0.5 24q-1 11 -2 22.5
t-1 22.5q0 12 0.5 24t0.5 24v24l-1 3q-1 2 -1 5t-1 5l-1 2l-3 6q-2 4 3 6.5t9 0.5q5 2 10 0l27 3l25 1q14 1 28.5 1.5t28.5 0.5z" />
    <glyph glyph-name="G" unicode="G" horiz-adv-x="390" 
d="M229 722q22 -2 42 -12q9 -5 17.5 -11t16.5 -14q4 -4 6.5 -8.5t4.5 -9.5t4 -9t4 -9t3 -10.5t1 -10.5l3 -21q3 -22 -5 -36q-3 -5 -9.5 -7.5t-12.5 -2.5q-4 -2 -9 -3t-7 1q-1 0 -2 0.5t1 0.5h-18q-3 0 -8 0.5t-5 4.5q-1 16 -8 34q-2 8 -3.5 14.5t-3.5 14.5l-2 2q-4 2 -7 5
l-6 6l-2 2q-2 0 -3 0.5t-3 0.5q-2 1 -5 1h-1q-2 1 -7 1h-5q-1 -1 -5 -1h-1q-2 -1 -3.5 -1t-3.5 -1q-2 0 -2.5 -0.5t-2.5 -0.5q2 0 0 -1l-8 -3q-2 -1 -3 -1t-3 -1t-4 -5q-1 0 -1 -1t-1 -1l-2 -2q-1 -2 -2 -3.5t-2 -3.5t-2 -3.5t-2 -3.5q0 -1 -0.5 -1.5t-0.5 -1.5l-1 -1
q-2 -8 -3.5 -17t-4.5 -17q-3 -9 -7 -17v-5q-1 -5 -1 -11t-1 -11q-1 -11 -2.5 -22.5t-3.5 -22.5l-4 -48t-2 -48q-1 -24 -2.5 -48.5t-1.5 -48.5q0 -11 -0.5 -23.5t0.5 -23.5l2 -24t3 -25l6 -46q2 -11 3.5 -21t5.5 -20l5 -11q0 -2 2 -4q0 -2 1 -2l2 -4q2 -1 4 -3l4 -2l14 -3
q2 0 4 -0.5t4 -0.5h25q3 2 5.5 3t5.5 2q3 2 6 2.5t6 2.5q2 0 2.5 0.5t2.5 0.5l3 3l2 1q2 2 3 4l3 3l2 3l6 10q1 1 1 4q6 22 9 44t4 45v47q-10 2 -15 2h-25q-7 0 -14 0.5t-14 0.5h-8.5t-8.5 1q-4 1 -7.5 0.5t-8.5 0.5q-1 1 -2.5 2t-0.5 3q2 4 1.5 8t1.5 9q1 4 1 7.5t1 7.5
t2 7.5t2 7.5q0 3 1 5t1 5q-1 4 3 6t7 2q5 1 9 1h9q9 3 19 0q2 0 3 -0.5t2 -0.5h12q19 1 37 0h17t18 -2q10 2 15 2q7 0 14 -5h1q9 2 9 -3q1 -7 2 -13.5t2 -14.5q1 -7 1 -13.5v-14.5q0 -15 -3 -28l-3 -27q0 -7 -0.5 -14t-1.5 -14q-1 -3 -1 -6.5t-1 -7.5v-1q-1 -5 -0.5 -11
t-0.5 -12l-2 -10l-2 -10q-2 -11 -5 -21.5t-6 -21.5q-2 -5 -3.5 -10.5t-4.5 -10.5t-6 -9t-7 -8q-9 -9 -18 -17.5t-20 -14.5q-13 -7 -28 -10t-30 -3h-4q-8 -2 -14.5 -2h-14.5q-5 -1 -16 -1q-27 0 -52 14q-6 4 -11.5 8t-10.5 9t-8 10.5t-6 11.5q-5 11 -9.5 22.5t-6.5 23.5
q-5 23 -6 44.5t-3 44.5q-2 25 -4 49.5t-1 49.5q0 11 0.5 22.5t0.5 22.5q1 12 0.5 24t1.5 24q0 10 1.5 19t3.5 18q1 20 1.5 40t2.5 40q2 24 5 48.5t9 47.5q3 11 5 22.5t7 22.5q2 6 4.5 11.5t6.5 10.5q3 5 6.5 9.5t7.5 9.5q12 12 25.5 22.5t30.5 16.5q8 4 22 7q11 2 23.5 2
t24.5 -1z" />
    <glyph glyph-name="H" unicode="H" horiz-adv-x="398" 
d="M131 701q2 0 3.5 0.5t3.5 -0.5q7 -2 7 -6q1 -8 -2 -20q-1 -6 -1.5 -12t-0.5 -13q0 -3 0.5 -6t0.5 -6q1 -7 1 -13.5v-13.5v5l3 -96v-90q0 -5 0.5 -9.5t-1.5 -9.5v-2q6 1 11.5 1.5t11.5 0.5q8 0 15.5 -0.5t15.5 0.5q3 0 6 -0.5t7 -0.5h15q8 0 13 1h12q1 1 4 1l1 1l3 3
q1 8 2 15t2 15l2 16t3 16v14v24t1 24q0 7 0.5 13t1.5 12q0 5 1 7q0 1 -1 2q-1 10 -3 19.5t-4 19.5q-1 5 -1 10.5v10.5q1 5 0.5 10t0.5 10t1.5 9t0.5 9q-2 10 1 17q-2 2 -0.5 4t3.5 4t5.5 3t6.5 -1h7q1 -1 6 -1h5q7 1 13.5 2t13.5 -1h10q4 0 7 -3l2 -3q2 -5 3 -11t1 -13
q0 -6 -0.5 -12.5t-0.5 -12.5q1 -12 0.5 -24.5t-0.5 -24.5q0 -14 1 -27.5t1 -27.5v-49q0 -11 1 -22t0 -22q-2 -12 -1.5 -23.5t0.5 -23.5l-3 -47q-2 -11 -3.5 -22.5t-3.5 -22.5q-1 -11 -2 -23t-3 -24q-2 -11 -3 -23t-3 -24q-2 -23 -3 -46.5t-1 -46.5q1 -5 1 -10v-10v4l2 -18
t1 -18v5q1 -6 1 -11.5v-10.5v-17q0 -5 1 -8q2 -9 -2 -14l-2 -2q0 -4 -3 -7q-6 -5 -17 -5q-2 -1 -6 -1h-5.5t-6.5 1q-9 0 -13 1h-17q-2 0 -4 0.5t-4 -0.5q-3 -1 -9 -1q-8 0 -11 4q-3 5 -1 11q0 5 0.5 8t1.5 7q2 4 2 7l3 28q1 10 1 19t1 18q1 17 3 33t4 33q0 8 0.5 17t1.5 17
q1 9 1.5 18t0.5 17q1 17 0.5 34t1.5 34q0 8 0.5 15t1.5 15h-1q-3 2 -7 4h-5q-2 0 -4.5 0.5t-2.5 2.5q-7 1 -14 1h-15h-10h-6.5t-6.5 -1q-9 0 -18 -0.5t-17 -0.5h-10q0 -7 -0.5 -13.5t-0.5 -12.5q0 -5 0.5 -10.5t-1.5 -10.5q-1 -5 -1 -8.5v-8.5q1 -15 0 -30q-3 -17 -3 -31
q0 -15 -1 -30.5t-2 -30.5v-60t-1 -60l3 -11q0 -6 1 -7q2 -4 2 -6q-2 -7 -9.5 -8.5t-12.5 -1.5h-16q-1 -1 -2 -1q-6 -2 -12 0h-7l-7 1q-8 0 -12 1q-6 2 -5 5q-1 7 -5 16q-3 7 -1 13q-1 5 -1 15v17.5t1 16.5q1 18 0.5 36t-0.5 36q1 9 0.5 18.5t1.5 18.5l4 31q1 17 1 33v32
q1 50 2.5 99t2.5 98q0 26 0.5 50.5t0.5 49.5v85q0 4 -0.5 7.5t0.5 7.5q0 2 3 4q0 3 1 4q2 6 8 8t11 2q6 -1 12 -0.5t12 0.5l21 -3h4z" />
    <glyph glyph-name="I" unicode="I" horiz-adv-x="220" 
d="M124 702q3 1 8.5 2t10 1t8.5 -2.5t4 -8.5q1 -10 1 -20.5t-2 -20.5q0 -5 -2 -15q0 -8 0.5 -15t0.5 -15q0 -12 0.5 -24t-0.5 -25q-1 -11 -1 -23v-23q0 -5 -0.5 -10.5t-1.5 -11.5v-24q0 -11 -0.5 -21.5t-0.5 -21.5q0 -9 1.5 -18t2.5 -18v-37q1 -8 1.5 -14.5t0.5 -13.5v-90
q0 -30 -0.5 -59.5t0.5 -59.5q0 -3 0.5 -6t1.5 -7q1 -3 1 -6.5t1 -7.5q0 -5 0.5 -9t0.5 -9q1 -5 1 -9.5v-9.5q0 -4 0.5 -8t0.5 -8q2 -8 2 -13q3 -4 1 -11q-3 -11 -15.5 -16t-23.5 -4q-3 0 -6 0.5t-5 0.5h-1q-2 1 -6 1h-7q-12 -2 -18 1q-2 0 -3 -0.5t-3 -0.5q-5 0 -9 1.5
t-4 7.5q0 1 -1 1q-2 4 0 9q0 3 2 7q0 2 0.5 3t0.5 2q0 5 1 7q0 5 -0.5 9.5t0.5 9.5q3 18 3 37q1 19 1 38v39q-1 39 0 79q0 9 0.5 18.5t1.5 18.5q1 10 0.5 19.5t-0.5 19.5q1 5 1 11v11t-1 10.5t-1 10.5q-2 12 -1.5 24t0.5 24q1 6 1 12.5t1 12.5t2 11.5t2 11.5q1 23 0 47
l-2 48t-3 47q-1 13 -3 24.5t-5 23.5q-2 5 -2 11t-1 11q-1 2 -1 3t-1 3q0 4 -1 4q-4 3 -2.5 6t5.5 5q1 1 2.5 1.5t3.5 1.5q1 2 3 3t3 2q5 2 11 1.5t11 -0.5h10q1 -1 3 -1t3.5 0.5t3.5 0.5z" />
    <glyph glyph-name="J" unicode="J" horiz-adv-x="330" 
d="M255 709q5 2 11 0.5t7 -7.5v-2l1 -7q2 -8 5 -16t5 -16q5 -19 7 -44q1 -12 1 -24v-24q0 -11 -1 -21t-3 -21q-3 -24 -3 -47v-22t-1 -22q-2 -23 -1.5 -46.5t-1.5 -46.5q-1 -11 -1 -21t-1 -21t-0.5 -22.5t-1.5 -22.5t-2.5 -21.5t-2.5 -21.5q-1 -6 -0.5 -12.5t0.5 -12.5v-12
t-1 -12q-2 -12 -4.5 -23.5t-4.5 -23.5l-4 -24l-4 -24q-3 -17 -12 -32l-1 -2q-8 -23 -33 -29q-8 -2 -12 -2l-21 -5q-6 -2 -11.5 -3t-11.5 -1h-11q-21 -2 -42 3q-9 2 -18 6t-16 11q-4 4 -8 7t-8 8l-6 6q-3 3 -6.5 5.5t-6.5 5.5q-4 5 -4.5 9.5t-1.5 9.5l-2 12t-1 12v12
q0 2 -0.5 5t-0.5 5q1 3 0.5 6t-0.5 6l1 10q1 6 1 12v12q-3 3 0 9q3 5 8.5 7.5t10.5 4.5l3 1l2 2q4 2 8 1l1 1q2 1 -0.5 1t-0.5 1l5 2h1l1 1l5 4q9 6 21 3q5 -2 7 -5q1 -2 0.5 -3.5t0.5 -3.5q2 -6 2 -9q1 -1 1 -3q0 -5 1 -10.5t1 -10.5v-21q0 -9 -0.5 -18t2.5 -18q2 -8 4 -10
l9 -1l9 -2h1h4h8l8 2l7 1h2q6 4 10 6l3 1q4 4 5 9t3 10l2 6l2 6l2 12l1 4v80q0 13 0.5 25t1.5 25q1 12 1 24t1 24q1 11 1 22.5v22.5v12t1 12q1 5 1 10.5v10.5q0 11 2 22.5t3 22.5q1 12 1 24v24l1 46l1 25q-1 3 -1 10l-1 15q-1 8 -2 15t-3 15t-4 14.5t-4 14.5l-2 14l-2 6
l-2 6v2q-3 2 -2 4t3 4q4 3 12 5q6 3 13 3l14 3q5 2 7 3t7 3l12 2h13z" />
    <glyph glyph-name="K" unicode="K" horiz-adv-x="382" 
d="M132 716q5 1 11 0.5t8 -5.5q2 -4 1.5 -8t-0.5 -8v-9t-1 -9q0 -5 -2 -11l1 -13q1 -11 1.5 -21.5t0.5 -21.5q0 -23 -3 -45q-2 -11 -2.5 -21t-1.5 -21q-1 -22 -1 -43.5t-2 -43.5l-1 -11l3 6q1 4 5 10l3 4l3 4q2 4 4.5 8t4.5 8l10 20q2 5 4 9t3 9l2 10t3 10l6 10t5 10l6 12
q2 2 2.5 5t1.5 5l9 20q3 8 6 15t7 14l4 6q2 8 4.5 15t5.5 15l4 12l4 12l9 21l2 4l1 2q4 6 14 6q8 0 15 -0.5t15 -0.5l29 1q4 0 7.5 -0.5t5.5 -3.5q8 0 5 -6q-6 -14 -12.5 -28t-12.5 -28q-3 -8 -5.5 -15t-5.5 -15q-3 -7 -6 -13.5t-5 -13.5q-2 -8 -5.5 -15t-6.5 -15
q-3 -7 -6 -13.5t-7 -13.5t-7.5 -13.5t-6.5 -13.5q-2 -6 -4.5 -11.5t-6.5 -10.5l-3 -9q-2 -3 -3.5 -6t-3.5 -6l-7 -20l-7 -18l-3 -8l8 -26q3 -10 7 -19.5t8 -19.5q9 -22 16 -44t17 -43q5 -11 9 -22.5t8 -22.5q3 -11 6 -22.5t7 -22.5q7 -22 12.5 -44t12.5 -44q2 -5 3.5 -10.5
t3.5 -10.5t2.5 -9t2.5 -9q4 -11 5 -20v-2l3 -7q1 -3 2.5 -6t1.5 -6t-2 -5q0 -6 -7 -8.5t-12 -1.5l-11 4q-6 0 -10 3q-7 0 -11 3q-12 -1 -26 4q-5 0 -9 3l-9 1q-6 2 -3 7l3 3q-2 -2 -1.5 -1.5t1.5 2.5l1 2v3q0 7 -3 13l-5 13q1 -1 0 1l-3 5l-2 5l-3 10q-2 5 -3 9.5t-2 9.5
q-2 11 -6 21t-8 21l-4 13q-1 3 -1 11q-1 5 -1.5 10t-2.5 10q-3 11 -7 20.5t-8 20.5t-8.5 21.5t-6.5 21.5t-6.5 21t-8.5 21q-2 6 -3.5 12t-3.5 11l-1 3l-2 3l-5 6l-3 4q-2 -6 -4 -9l-6 -10l-1 -2l-3 -7l-2 -4q0 -8 -6 -15l-2 -2l3 -60l2 -80l1 -37q0 -9 1 -18t-1 -18
q-2 -10 -1 -19.5t1 -19.5v-16q0 -2 0.5 -3t0.5 -3q1 -6 -1 -11t-8 -7t-11 -3h-3q-3 -1 -9 -1q-3 1 -6 1t-6 2h-19l-5 -1l-3 1h-8q-4 -3 -10 -1q-5 1 -5 7q0 3 0.5 6t0.5 6v11q0 1 3 3v7l1 35v80q0 39 -0.5 78t-0.5 78v48t1 48l1 18l-2 16l-2 11q-1 4 -1 12q0 5 -0.5 8.5
t-1.5 7.5q-2 10 -2.5 19.5t-1.5 19.5q-1 12 -0.5 24t1.5 24l1 44q0 11 -1 21t1 21t1 21t0 21q-3 2 -2 4q1 3 7 3q3 0 5.5 1t4.5 2l8 2l3 1q4 2 6 2l9 3q9 3 19 4.5t19 3.5z" />
    <glyph glyph-name="L" unicode="L" horiz-adv-x="314" 
d="M153 710q7 -3 2 -10q-4 -6 -8 -18q-1 -5 -2.5 -10.5t-3.5 -10.5q-2 -6 -4 -14v-11q0 -4 -0.5 -7t-0.5 -6q0 -10 -1 -14t-1.5 -7t-0.5 -7v-13q-2 -6 -1.5 -12.5t0.5 -12.5v-31q0 -8 0.5 -15.5t0.5 -15.5v-16q0 -8 -3 -12q1 -2 1 -7q3 -8 3 -15q1 -9 0.5 -17.5t-1.5 -16.5
q-1 -6 -1.5 -12t-0.5 -12q0 -5 -1 -10.5t-1 -10.5q-1 -11 0 -22.5t-1 -22.5q-1 -3 -0.5 -6t0.5 -6q0 -2 -0.5 -4.5t-0.5 -5.5l-2 -20q-1 -6 -1 -12v-12q-1 -6 -1 -12v-12v-47q0 -3 0.5 -5.5t1.5 -5.5v-11q1 -5 1 -11v-11q1 -6 1.5 -12t0.5 -12q0 -5 -0.5 -10.5t-0.5 -10.5
v-6h3q10 -2 18 -1.5t19 2.5q5 0 10.5 0.5t10.5 0.5q2 -1 4.5 -1t4.5 -1h3q5 0 8 1h22q6 0 12.5 0.5t12.5 -0.5h8q9 3 19 0q3 -1 6.5 -2.5t3.5 -5.5q1 -6 1.5 -12t0.5 -12q2 -2 0 -5v-2q4 -3 4 -6l1 -1q0 -6 -3 -10q4 -5 0 -11q-1 -5 -5 -7.5t-8 -4.5q-6 -3 -12 -3
q-8 -2 -14 -1q-8 -2 -13 -2h-13q-2 -1 -4.5 -0.5t-4.5 0.5h-4l-31 -3l-16 -2t-16 0h-28q-7 0 -13.5 1t-12.5 0h-9q-1 -1 -3.5 -1t-2.5 1q-2 -1 -7 -1h-2q-2 -1 -7 -1q-3 -1 -8 -1q-8 0 -12 1q-4 2 -2 5q-1 1 -1 2q-2 5 -1.5 9.5t0.5 9.5q0 3 -0.5 6.5t-0.5 7.5
q0 8 -0.5 16.5t-1.5 16.5q-1 17 -2 33.5t-1 33.5q0 35 0.5 69t0.5 69q1 50 1 98.5t3 97.5q1 6 1 12t1 12v10.5t-1 10.5q-2 11 -3 23t-1 23t0.5 23t1.5 23q0 11 -1 20.5t-1 20.5q-2 7 0 15q0 4 -1 7t-1 6q-1 7 2 15q2 4 6.5 5.5t8.5 -0.5q5 1 8.5 1t8.5 2q5 1 10 1.5t10 0.5
q3 1 8 1.5t10 1.5q3 0 6.5 0.5t7.5 -0.5h2q1 0 3 0.5t0 -0.5q2 1 5 1q4 2 7 1q6 2 10 1z" />
    <glyph glyph-name="M" unicode="M" horiz-adv-x="604" 
d="M156 713q4 1 9 1t7 -3q1 -2 2 -4.5t2 -4.5q1 -1 3 -5q2 -2 3 -5t2 -5q0 -3 2 -7q3 -7 5 -13l6 -28l8 -28q2 -8 3.5 -16.5t3.5 -16.5t4 -16.5t4 -16.5l8 -30t7 -30q2 -11 3.5 -22.5t4.5 -22.5q3 -12 5.5 -24t4.5 -24t3.5 -24.5t3.5 -24.5l10 -47q2 -11 4.5 -20.5
t4.5 -20.5t4 -22.5t4 -23.5l6 -48q0 -6 1 -12l2 -12l1 -6q2 10 4.5 19t4.5 19l1 6q1 9 1 17.5t1 17.5q1 10 2.5 20t2.5 21q1 8 1 17t2 18q1 8 2 16.5t3 16.5l6 46q2 11 4 23t5 24q2 11 5.5 22.5t5.5 22.5q2 12 4.5 23.5t6.5 22.5l10 28q1 2 1 4t1 4q2 8 3 15.5t3 15.5
q2 5 3.5 11t2.5 11q2 5 2.5 9.5t2.5 9.5t3 10t1 10q2 12 4 20t2 12q1 2 1 4.5t1 4.5q1 6 4 11v7q0 6 10 6q3 2 9 2h4q1 0 2 1q6 3 12 3q9 0 20 3q10 2 20 2h20q5 0 9.5 0.5t9.5 -1.5q7 -1 11 -11l1 -5q3 -2 3 -4v-7l2 -11q1 -5 1 -8.5v-8.5q0 -4 0.5 -8t0.5 -9q1 -5 1 -9v-9
l1 -21q0 -17 1.5 -34.5t3.5 -34.5q2 -25 3.5 -49.5t0.5 -49.5q0 -25 -3 -49q-1 -6 -1.5 -12t-0.5 -13q0 -5 0.5 -10.5t-0.5 -11.5q-1 -8 -1 -15t-1 -15l1 -5q1 -2 1 -5.5v-5.5v-8q1 -4 1 -7.5t1 -8.5l1 -19q2 -20 2 -39t1 -39l2 -39q0 -5 0.5 -9t1.5 -9l1 -17q0 -5 1 -9.5
t1 -9.5q1 -5 1 -9.5v-9.5v-21q0 -4 -0.5 -7.5t0.5 -7.5q0 -9 -11 -13q-12 -4 -24 -3q-5 1 -9 0.5t-9 -0.5h-11q-3 1 -7 1t-8 2q-10 -2 -16 4q-4 5 2 11q-2 5 -2 10v10v52q0 17 0.5 34.5t0.5 34.5l-1 41v-5l-1 42q-1 12 -1 23.5v23.5t0.5 23.5t-0.5 23.5l-2 45
q-1 12 -0.5 24.5t0.5 24.5q0 5 -0.5 10.5t-0.5 12.5l1 22q0 5 -0.5 11t0.5 11t1 9.5t1 9.5v20.5t-1 20.5v6.5t-1 7.5l-9 -18q-5 -14 -7 -31q-1 -6 -1.5 -18t-2.5 -17q-3 -11 -7 -28.5t-7 -33.5l-6 -25q-1 -2 -2 -5.5t-1 -5.5l-1 -11q-1 -11 -3.5 -22.5t-5.5 -22.5l-7 -22
l-5 -22l-1 -4l-1 -5q-2 -11 -4.5 -22.5t-4.5 -23.5q-2 -11 -5 -22t-5 -22q-2 -6 -3 -12l-2 -12q-1 -5 -1 -10t-1 -10l-4 -22l-4 -22t-3 -22t-3 -22l-2 -12t-3 -12v-12q0 -4 -0.5 -9t-3.5 -8q-4 -4 -8.5 -5t-9.5 -3l-4 -2q-4 -2 -8 -2.5t-8 -1.5l-3 -1q-2 0 -5 -1t-5 -1
l-2 -1q-3 0 -4 -1q-7 -2 -11 -3.5t-11 -0.5q-5 2 -6 6t-3 8l-6 18l-1 2q-4 9 -5 18.5t-2 19.5t-3.5 20t-4.5 20q-5 20 -10.5 39.5t-9.5 39.5q-5 20 -7.5 40.5t-6.5 40.5q-2 10 -2.5 20t-2.5 21l-6 39q-5 23 -11 46t-11 46q-3 12 -4.5 24t-3.5 23q-2 12 -5 24t-5 24
q-3 11 -4.5 23t-3.5 23l-2 15v-5q-2 -5 -1.5 -10t0.5 -10q0 -10 -2.5 -20t-1.5 -18q1 -10 1 -19t1 -19q0 -20 -0.5 -41t1.5 -40q2 -50 3 -99t1 -98v-49q0 -12 -1 -23.5t-1 -23.5q0 -6 0.5 -12t-0.5 -12q-1 -5 -1.5 -10t-0.5 -10q0 -6 0.5 -12.5t-0.5 -12.5l-1 -9l1 -1
q2 -8 -2 -12q-5 -6 -11 -8l-4 -1q-3 -1 -8 -1q-8 -2 -13 -2l-2 1q-2 0 -3 -0.5t-3 -0.5q-8 -4 -16 -4l-13 -4q-4 -2 -7 0q-7 0 -9 3q-2 2 -1.5 5.5t1.5 6.5q0 3 2 11l1 12q1 10 1 19.5t1 19.5q1 5 1.5 11t0.5 11l1 21q1 11 1 21.5t2 21.5q1 10 0.5 20t-0.5 21l1 44
q0 23 -0.5 45.5t0.5 45.5l1 50v26l1 12v8q-2 23 -1.5 45t0.5 45q0 5 -0.5 10.5t-0.5 10.5q-1 6 -0.5 12t-0.5 12l-1 46v21l-1 9q-1 3 -1 8v2q-1 5 -1 9.5v9.5l-1 8l-6 22q-1 3 2.5 5t7.5 2q3 3 7 3l24 3l23 2q12 1 23.5 1.5t22.5 0.5z" />
    <glyph glyph-name="N" unicode="N" horiz-adv-x="455" 
d="M358 699q4 0 12 -2q2 -1 5 -1t5 -1l4 -2q9 2 12 -4q3 -7 2 -14.5t0 -15.5l2 -34q1 -18 1 -36t1 -36l2 -36t1 -36v-34.5t-2 -34.5q-2 -24 -1.5 -48t0.5 -48v-24t-1 -24v-12t-1 -12l-3 -22q-3 -24 -3 -48.5t1 -49.5l1 -50v-25v-6q2 -3 6 -11q3 -7 6 -13.5t5 -14.5
q1 -5 -4.5 -6.5t-8.5 -1.5h-5v-3q2 -9 -9 -11q-4 -2 -8 -1.5t-8 0.5h-19q-5 0 -9.5 0.5t-9.5 1.5q-4 2 -8 1t-8 0q-8 1 -9 9q-1 5 -1 15q0 3 3 5l-1 2l-2 4l-5 8q-2 5 -4.5 9.5t-4.5 9.5q-4 11 -6.5 21t-6.5 20q-4 9 -7.5 18.5t-8.5 18.5q-5 10 -8 20t-7 20q-2 5 -4 10.5
t-4 10.5t-3.5 9t-3.5 9q-4 9 -7.5 18t-7.5 19l-15 45q-4 11 -6.5 22.5t-5.5 22.5q-4 11 -8 22.5t-8 22.5l-13 40q-3 10 -6 19.5t-5 19.5l-10 38q-2 10 -5 19l-6 18l-2 5l-1 -43q-1 -24 0.5 -48t2.5 -48t0 -48t0 -48t4 -47.5t4 -47.5q1 -12 0.5 -24t-0.5 -24q0 -23 3 -45
q3 -24 3 -48l-1 -35q0 -8 -3 -15q1 -5 1 -9v-9q0 -4 -5 -5.5t-7 -2.5q-5 -1 -10.5 0.5t-10.5 2.5q-5 0 -7 1h-4h-12.5t-12.5 2h-10.5t-10.5 2l-2 2v2q0 3 1 6t1 7v1l1 6q1 5 1 15q-1 10 -0.5 19.5t1.5 19.5q0 5 0.5 10.5t0.5 10.5l-2 19q-2 11 -2 20.5v20.5q-1 20 -1.5 39
t-0.5 39v79q0 24 0.5 48t1.5 48q0 12 0.5 24t1.5 24q1 13 1 25.5v25.5q1 25 2 49.5t2 49.5q0 11 -0.5 21t-1.5 21q-1 6 -1 12v12q0 5 -0.5 10.5t-0.5 10.5q0 4 5 6t8 2h4t4 -1q5 1 10.5 1h10.5h16t16 -2l19 -4q4 0 6 -5q2 0 4 -2q12 -14 17 -30.5t11 -33.5q3 -9 6.5 -18
t5.5 -18l4 -18t5 -18l21 -69l1 -4l5 -14l4 -10l3 -6l5 -15l2 -6l2 -6v-2l7 -22q2 -5 3.5 -10.5t3.5 -10.5q6 -24 15 -44q4 -11 6.5 -22t4.5 -22q2 -10 5 -19.5t5 -19.5q8 -29 18 -53v3v19q0 23 1 45t1 45q0 11 -1 22.5t-2 22.5q-2 24 0 48q2 23 2.5 46.5t-0.5 46.5
q-1 24 0.5 48t0.5 48v22.5t-1 22.5q0 6 0.5 12t-0.5 12q-1 5 -2 10.5t-1 10.5q0 1 2 3l-1 2q-2 2 1 4t5 2l7 1q11 8 23 6z" />
    <glyph glyph-name="O" unicode="O" horiz-adv-x="416" 
d="M187 703q8 0 17 -0.5t17 -3.5q9 -2 18 -5t18 -7q16 -4 27 -9q8 -5 15 -11l14 -12q12 -13 23 -26q20 -32 24 -67q1 -8 2 -16.5t3 -17.5v-8q6 -45 6 -91l2 -22t1 -22t1 -23.5t1 -23.5t-0.5 -22t-0.5 -22v-12.5t-1 -12.5q-1 -5 -1 -10v-10q0 -3 0.5 -6t-0.5 -5
q-1 -3 -1 -5.5t-1 -4.5q-1 -6 -2 -11.5t-2 -11.5q-1 -12 -2 -24.5t-3 -24.5l-4 -24t-7 -24q1 3 0 0.5t-1 -3.5t-0.5 -2t-0.5 -3q-1 -2 -1 -4.5t-1 -4.5q-2 -5 -3.5 -10t-4.5 -10q-1 -3 -5 -7l-6 -16q-11 -19 -29 -31q-18 -13 -40 -20.5t-45 -5.5q-11 1 -22 3.5t-22 5.5
t-22.5 6t-22.5 8q-27 12 -41 40q-3 1 -6 6q-8 10 -11.5 22.5t-6.5 24.5q-8 29 -12 58.5t-6 59.5q-2 25 -2 50t1 51v47q1 12 1 24.5t1 23.5q1 7 1.5 13t0.5 12v12t1 12q0 5 1.5 11t1.5 12q1 5 1 9.5t1 9.5q-1 5 -1 13q-1 21 5 44q3 10 6.5 19.5t6.5 19.5q4 11 8.5 22t11.5 21
q5 8 14 14q0 1 2 3q6 8 14 13t18 9q5 2 10 3.5t10 2.5h5q2 1 3 1t3 1q11 4 20 5zM192 612q-1 0 -1.5 -0.5t-1.5 -0.5l-3 -1q-1 0 -7 -2l-6 -3q-1 -1 -2 -1h-1q-2 -2 -3 -2q-2 -1 -2.5 -2t-2.5 -2q-6 -5 -10 -11t-8 -13q0 -2 -2 -4q-1 -3 -1 -6t-2 -6q-1 -3 -1 -6t-1 -6
l-3 -7q1 -4 1 -11q0 -23 -4.5 -46.5t-6.5 -46.5q-2 -25 -2 -49.5v-45.5q-1 -12 -1 -24t-1 -24q0 -7 -0.5 -13t-0.5 -12l-2 -12t-1 -12v-1q0 -10 2 -15q2 -10 3.5 -20t4.5 -20q4 -11 6 -21q1 -5 1.5 -10t2.5 -10q2 -9 5 -18t8 -17q10 -14 24 -24q13 -9 29 -12h8q4 -1 7 -1
t6 -1l8 2q1 0 2 0.5t3 0.5h1q1 1 2 1l1 1q2 1 4 3l2 3q0 1 1 1q12 17 19 33q8 21 12 38q5 23 7 46t2 46q1 23 0.5 46.5t2.5 46.5q2 12 3 24.5t1 24.5q1 11 0 22.5t-1 23.5t-1 24t0 24v12q-7 28 -20 59q-5 10 -10 19.5t-8 20.5v1q-10 10 -21 13q-4 2 -8 2l-3 1h-1q-5 1 -15 1
h-5l-7 -1h-2z" />
    <glyph glyph-name="P" unicode="P" horiz-adv-x="360" 
d="M94 708q5 0 9 0.5t9 -0.5q7 -2 14 -1.5t15 0.5q5 0 8.5 -0.5t7.5 -0.5h8l6 -1q6 0 10 -1l18 -3l22 -4q20 -4 38 -13t29 -26q12 -18 19 -38t12 -41q2 -11 5 -22.5t5 -22.5l3 -24q1 -5 0.5 -11t-0.5 -11q0 -6 0.5 -12t0.5 -12v-24v-12t-1 -12q-1 -5 -2 -10.5t-3 -10.5
t-2.5 -10.5t-2.5 -10.5l-3 -7l-1 -2q-1 -3 -2 -6.5t-6 -12.5q-4 -6 -7 -9l-3 -6l-15 -27q-3 -6 -10 -9.5t-13 -5.5t-12 -2.5t-12 -1.5q-7 -1 -12 -1.5t-13 -1.5t-16.5 -1t-16.5 -1q-8 0 -15 -1t-15 -1h-14v-20q0 -6 0.5 -12t1.5 -12t1.5 -12t0.5 -12v-12t-1 -12
q-2 -11 -2.5 -22.5t1.5 -22.5t5 -21t5 -21l2 -12l2 -12t1 -12v-12l1 -11l1 -1q4 -10 5 -15q3 -11 -6.5 -16t-17.5 -7h-9l-5 -1h-4h-2l-3 -1q-5 -1 -8.5 -1h-8.5h-9.5t-9.5 2q-3 1 -7 3t-4 6v8q-1 5 -0.5 9.5t0.5 9.5q0 6 0.5 12t-0.5 12q-1 5 -1.5 10.5t-2.5 10.5
q-2 11 -4.5 22t-3.5 22q-1 5 -1.5 10.5t-0.5 10.5q0 2 0.5 5t-0.5 5q-1 3 -1 9q0 1 2 3q-2 16 -2 31.5t2 31.5q2 17 4 34.5t1 34.5q-1 13 -2 25.5t-1 25.5q0 12 -1 24t-1 24t0.5 24t0.5 24t-1 24t-1 24t-0.5 24t-0.5 24v24t-2 24q-2 13 -3.5 25.5t-1.5 25.5t1 25t3 24
q1 5 4.5 7.5t8.5 4.5l2 1q7 3 12 2q2 0 4.5 0.5t4.5 0.5zM130 645v-15t1 -15q2 -25 2 -49.5t1 -49.5l1 -50q0 -11 -0.5 -22.5t-0.5 -22.5l-2 -47v-21h5q4 0 7.5 -0.5t7.5 -0.5q8 -1 17 0t17 1t16 1t16 3l10 2l2 2l7 10q3 6 5 12l3.5 7t2.5 7q2 5 4 15q2 8 3 15t1 15
q0 23 -1 45t-4 45l-2 24v3l-9 22q-3 9 -6.5 18t-8.5 17l-2 3l-1 1l-2 2q-4 2 -7 4t-8 4t-9 3t-9 2q-12 2 -19 4q-5 2 -9 2h-9q-2 0 -4.5 1t-4.5 1z" />
    <glyph glyph-name="Q" unicode="Q" horiz-adv-x="431" 
d="M241 719q12 -1 25 -3t24 -7l5 -3q8 -2 16 -5.5t15 -8.5q16 -12 27 -32q5 -10 6 -21l2 -22l1 -13l2 -19l3 -21l1 -15l9 -86l3 -36l1 -19v-24q0 -5 0.5 -10.5t0.5 -10.5q1 -12 0 -24t1 -24q3 -24 3 -48v-22.5t-1 -22.5q-1 -20 -8 -45q-3 -11 -6 -22.5t-7 -22.5
q-2 -6 -4.5 -12t-5.5 -12q-2 -5 -4.5 -9.5t-5.5 -9.5q-7 -16 -15 -29q-20 -29 -51 -44q1 -5 2 -10.5t3 -10.5l6 -22l3 -10l5 -9q2 -2 4.5 -3.5t3.5 -4.5q1 -5 -5 -7t-10 -2q-3 0 -6 -1.5l-5 -2.5q-4 -2 -7.5 -2.5t-7.5 -2.5q-7 -2 -13.5 -3.5t-13.5 -3.5l-3 -1q-4 -2 -6 -2
t-5.5 0.5t-4.5 4.5q-1 3 1 9l-1 5l-4 14q-2 4 -2 8.5t-1 8.5l-2 18l-1 15q-5 -1 -9 -1h-9l-11 -1q-15 -1 -29.5 -1t-28.5 8q-18 10 -32 25t-22 35q-2 5 -4 15l-2 4q-16 37 -19 72q-1 12 -1 24.5t-1 24.5q-1 13 -1.5 25.5t-0.5 25.5q0 16 2 31.5t4 31.5q1 8 1 16.5t2 16.5
q2 9 3.5 18t4.5 17v16.5t1 16.5q-1 13 -1.5 25.5t-0.5 25.5q1 23 3.5 46.5t7.5 46.5q4 23 12 46q2 6 3.5 12.5t4.5 11.5q4 8 12 16q10 15 26 30l6 6t7 5q5 3 10 5l10 4q10 5 19.5 9t20.5 6l11 2q10 2 19.5 3.5t20.5 0.5zM190 646q-3 -2 -11 -4l-4 -3l-4 -3l-4 -4l-1 -2
l-3 -5l-2 -4l-1 -4l-3 -14l-5 -27l-6 -30q-2 -8 -2.5 -15t-2.5 -15q-3 -14 -3.5 -28.5t-2.5 -28.5q-2 -24 -3 -48.5t-6 -48.5q-5 -23 -6 -47.5t-2 -48.5v-23v-9l-1 -9v-12q1 -6 0.5 -12t0.5 -11q1 -6 1.5 -12t2.5 -11q3 -11 6.5 -22.5t7.5 -22.5l6 -18l3 -6l1 -2l2 -3l5 -5
l8 -5l4 -2l3 -1l8 -2l4 -1h3h10l-2 12q-2 8 -3.5 16.5t-1.5 16.5q-2 5 -4.5 8.5t-3.5 8.5q0 4 3.5 6.5t6.5 4.5q2 2 5.5 3.5t6.5 3.5q4 2 7.5 3.5t7.5 3.5l15 6q3 2 8 2t7 -4q2 -3 1.5 -6t0.5 -7q1 -3 1 -11v-2l3 -12l5 -23l5 4l10 9l6 19q3 11 6.5 21.5t5.5 21.5t5.5 21.5
t5.5 21.5q2 6 2.5 12t1.5 12l2 11v3l-1 9l-2 28l-6 84q-1 7 -1.5 13.5t-0.5 13.5l-1 32v9v4v2v12q-1 11 -2 21t-3 21q-2 14 -3.5 28.5t-3.5 28.5q-1 5 -1.5 10t-2.5 10t-3.5 9t-3.5 9l-2 4l-1 3l-4 7q-2 4 -4.5 7.5t-5.5 7.5h-1l-7 1q-3 1 -5.5 1t-4.5 1l-3 1l-3 1l-9 2h-2
l-14 1h-5z" />
    <glyph glyph-name="R" unicode="R" horiz-adv-x="370" 
d="M152 698q1 -1 2 -1h1h9l29 -1q1 -1 2 -1h11q2 -1 3.5 -1t3.5 -1h3l13 -3q3 -1 5.5 -2t5.5 -2q3 0 9 -2q12 -2 21 -7t16.5 -14t12.5 -18q6 -10 10 -20t8 -21q8 -24 8 -45v-24t1 -24q2 -24 2.5 -48.5t1.5 -49.5v-19v-9.5t-1 -9.5q-3 -20 -15 -38q-15 -21 -34 -35q-2 -2 1 0
q-2 -2 -6 -4q-2 -2 -4 -3q-6 -4 -10 -6q2 -16 6.5 -31t7.5 -31q2 -9 5 -18t5 -19l9 -34l25 -79l12 -37q2 -5 3 -9t2 -9v-2q3 -6 8 -11q2 -3 3 -6.5t3 -5.5q2 -4 -2 -6.5t-7 -2.5q-7 0 -13.5 -0.5t-13.5 -0.5h-9q-3 1 -5.5 1.5t-5.5 0.5q-8 0 -12 2q-15 -2 -27 1q-9 2 -8 10
v27t-4 27q-2 10 -2 15q-1 5 -3 10.5t-4 10.5q-3 11 -6.5 22.5t-6.5 22.5l-9 47q-2 12 -3.5 24t-6.5 23q-2 5 -3.5 9.5t-3.5 8.5l-4 10q-6 -1 -22 -1.5t-22 -0.5h-2q-2 0 -1 1q-2 -1 -5 -1h-8l-1 -1q0 -5 0.5 -10t0.5 -10l3 -18q0 -4 0.5 -8t0.5 -9q1 -8 2.5 -16.5t1.5 -17.5
q1 -8 2.5 -16.5t1.5 -16.5q1 -18 1 -36v-35v-9t-1 -9q0 -2 -1 -3l1 -1v-21q0 -5 1 -9t2 -9q2 -4 -1.5 -6.5t-7.5 -3.5q-6 -3 -12 -3q-10 -2 -17 -2q-12 -1 -23.5 -2.5t-22.5 -5.5h-4t-4 1q-2 0 -4.5 1t-2.5 3q1 5 2 9l2 8q-3 5 -1 10q0 1 1 1v12q0 5 -0.5 8t-1.5 7
q-2 11 -1 21t1 20q0 20 0.5 39t-1.5 39q-1 11 -1.5 21t0.5 20t2 19l2 18q1 20 1 39v39q0 12 1 23.5t-1 23.5q-1 11 -2 22.5t-2 23.5q-2 23 -0.5 46t1.5 46q0 11 -1 22l-2 22q-1 24 0 49q1 12 1.5 24t-0.5 24v40q-2 2 0 7h1q1 5 7 7t10 0q1 1 4 1q6 0 12 0.5t13 0.5q5 1 11 2
t12 1q13 1 28 0q2 -1 7 -1zM162 634l-15 -3q-3 0 -7 -1t-6 -3q-3 -3 -3 -5t0.5 -4t-1.5 -4q2 -8 2 -12q2 -9 3 -18l2 -18q2 -21 1.5 -41.5t0.5 -41.5q0 -21 1 -42t2 -41v-46q2 -2 4.5 -3.5t4.5 -2.5q4 0 6 1q8 0 26.5 1t26.5 1h13q2 0 4 0.5t4 0.5l5 1q2 0 3 1t1 2t1 2
q7 20 7 43q0 6 1 12t1 11q1 6 1 11.5v11.5q-1 12 -1 24v23q1 5 0.5 10.5t-0.5 11.5q-1 5 -1 10.5v10.5q-1 9 -5 22q-2 7 -4 19q-1 5 -2 9t-3 9q-2 9 -6 15q-5 8 -12 12.5t-16 6.5q-5 1 -18.5 2t-18.5 2h-2z" />
    <glyph glyph-name="S" unicode="S" horiz-adv-x="352" 
d="M203 714q13 -1 26 -3.5t24 -9.5q5 -3 9.5 -6t9.5 -7q15 -6 27 -18q15 -16 19.5 -37.5t2.5 -42.5q0 -2 -2 -4q-1 -4 -6 -6q-7 -4 -17 -4q6 0 3.5 -0.5t-4.5 -1.5l-7 -1l-11 -2q-5 -1 -10.5 -3t-10.5 -2q-3 0 -6 0.5t-5 4.5t-1.5 8.5t-0.5 9.5l-1 4l-4 11q-2 4 -4 7
q-1 2 -2 2.5t-2 2.5q-2 3 -4 6.5t-5 6.5q-6 6 -10 9q-5 3 -10 5l-9 -1q-10 -2 -18.5 -6t-16.5 -9q-9 -6 -17 -14l-3 -11q-2 -10 -1.5 -20t-1.5 -20l-2 -10l3 -23q2 -11 3 -21t5 -20q3 -9 7 -17t11 -15q4 -6 9 -9l13 -8q15 -8 29 -17t25 -23q2 -3 4.5 -6.5t4.5 -7.5l14 -17
q14 -17 22 -36.5t16 -39.5q8 -21 11 -42.5t3 -44.5v-18.5t-2 -18.5l-3 -27q-1 -10 -2 -19t-3 -19q-2 -11 -6 -21.5t-10 -19.5l-10 -16t-12 -15q-4 -4 -12 -10q-4 -6 -7 -9q-14 -14 -31.5 -20.5t-36.5 -7.5h-4q-5 -1 -9.5 -1.5t-9.5 -0.5q-3 0 -5 2q-21 1 -39 12
q-7 4 -13.5 8.5t-11.5 9.5l-13 11l-15 15q-5 5 -6 12t-3 14q-2 12 -3 24t-3 24q-2 11 -3.5 21.5t-3.5 21.5l-1 2v3q-4 0 -3 4q1 3 4 4.5t5 1.5q-2 0 -0.5 0.5t2.5 1.5l2 2q2 2 3.5 2t3.5 2l12 9l15 9q6 4 9 5q1 0 3.5 1.5t0.5 -0.5q8 5 15 5q3 0 7 -2q5 -2 6.5 -8t1.5 -11
q0 -4 2 -12v-4v-7q2 -2 1 -4t1 -5.5t3 -6.5q2 -5 2 -9v-9v-10t1 -10t2 -8.5t5 -6.5q4 -4 7 -8t7 -7l7 -5l3 -1l7 -1h2l2 1q3 2 6 3t7 3l3 2l6 4l6 4l2 2l5 4l3 3l5 9l3 6v1v1l4 12l2 6t1 6l1 16q1 5 2 9.5t1 9.5v3l-1 9l-3 25q-2 13 -4 25.5t-4 25.5l-2 14q-1 5 -5 15l-2 3
l-1 2l-3 5q-9 15 -21 27q-7 6 -15.5 11.5t-17.5 10.5q-20 10 -36 24q-15 12 -28 30q-14 19 -20 39q-2 5 -3.5 9t-2.5 9q-4 9 -7.5 18t-5.5 19q-6 22 -6 45q0 21 6 41q3 10 8 23l4 9l1 3l1 3q4 10 7.5 20t8.5 19q11 20 32 34q20 15 44 19.5t49 2.5v-5z" />
    <glyph glyph-name="T" unicode="T" horiz-adv-x="350" 
d="M313 708q6 0 10 -4h2q10 -1 8 -13q0 -3 -0.5 -5.5t0.5 -6.5v-12q0 -7 0.5 -13t1.5 -13q0 -5 -6 -7.5t-10 -0.5h-7q-2 0 -3.5 0.5t-3.5 0.5h-3q-3 -1 -6 -1t-7 -1h-6q-2 0 -3 -1h-4q-2 0 -4 -0.5t-4 -0.5q-3 -1 -9 -1h-15q-1 0 -1.5 -0.5t-1.5 -0.5q-3 -2 -6 -2t-6 -2v-9
q1 -5 0.5 -9t-0.5 -9v-11t1 -11q0 -10 -1 -14l3 -23q3 -20 2.5 -40.5t-0.5 -40.5q0 -9 0.5 -18t-0.5 -19v-8.5t-1 -8.5t-1 -9v-9q-1 -11 -1.5 -22.5t-0.5 -22.5q-1 -12 -1 -24t-1 -23q-2 -24 -3 -47.5t0 -47.5v-21.5t1 -22.5t2.5 -23.5t3.5 -23.5q2 -13 1.5 -25.5t0.5 -24.5
q1 -7 1 -13.5v-13.5t-1 -10v-4q0 -3 0.5 -5.5t1.5 -5.5q5 -4 -1 -7.5t-9 -3.5q-5 0 -10 -0.5t-10 -0.5h-2q-2 -1 -5 -1l-7 -1q-5 0 -10 0.5t-10 0.5q-4 0 -7.5 -0.5t-7.5 -0.5h-13q-7 2 -6 8q0 2 1 4t0 4q-2 3 0 8v9l-3 31q-1 10 -1 19v18v67q0 17 -0.5 34.5t2.5 35.5
q1 8 1 15.5v15.5q0 5 0.5 8.5t0.5 8.5v15q1 12 2.5 24t1.5 23q1 6 1 12v12t1 11.5t1 10.5v22q2 6 2 11.5t1 10.5q1 12 0.5 24t0.5 24q1 23 0.5 45t-3.5 45q-2 6 -2.5 12t-1.5 12q-2 6 -1.5 12t1.5 12q0 2 1 4q-2 4 -4 5q-5 3 -12 5h-7q-7 -2 -9 0l-1 1q-5 0 -8 1h-58
q-5 1 -10 1t-10 2q-3 0 -6.5 1.5t-2.5 5.5q1 5 1 8.5v8.5v8.5t-1 8.5v7q0 2 -0.5 3t-0.5 3q3 7 13 9q4 0 7 -1q4 3 10 3q10 2 20 1.5t20 -1.5q11 -1 21 0t21 -1l4 -1q5 0 9 0.5t9 0.5q4 0 12 2q8 1 14.5 1h14.5h33q5 1 9 0.5t9 0.5q4 1 8.5 1.5t9.5 2.5q6 2 11.5 2h10.5h32z
" />
    <glyph glyph-name="U" unicode="U" horiz-adv-x="399" 
d="M329 710q6 0 12 -1.5t6 -9.5v-5q2 -6 2.5 -13t0.5 -14q0 -6 -2 -16q0 -5 -0.5 -8.5t-0.5 -7.5q1 -15 0.5 -30.5t-0.5 -31.5q1 -11 1 -23v-24q0 -11 -0.5 -23t0.5 -23q2 -8 2 -13v-11v-10.5t1 -10.5q1 -11 0.5 -23t1.5 -23q1 -12 0.5 -24.5t-0.5 -24.5t0.5 -24.5
t0.5 -24.5v-14t-2 -13q-1 -6 -2 -11.5t-3 -10.5l-3 -16v-11v-24t-1 -24q-1 -11 -0.5 -22.5t-1.5 -23.5q-2 -8 -1.5 -16.5t-0.5 -17.5q-2 -21 -15 -36q-15 -17 -34 -27q-11 -6 -23 -12t-24 -8q-14 -2 -26.5 -2.5t-25.5 -0.5q-5 0 -10.5 0.5t-10.5 0.5q-9 0 -13 1q-3 0 -4 1
q-4 0 -7 0.5t-7 1.5l-4 1q-1 0 -4 1.5t0 0.5q-10 3 -17 9q-5 5 -9.5 9t-9.5 9q-2 1 -2.5 2t-2.5 3q-1 2 -2 2.5t-2 2.5q-9 9 -10 21v4q-2 6 -3 12.5t-3 13.5l-6 43l-6 45q0 10 -3 21l-2 10t-1 10q-2 10 -1.5 20t0.5 20q0 5 1 9.5t2 9.5t1 9v8q0 7 -1 13.5t-1 13.5v-5
q0 4 -0.5 7t-0.5 7q-1 4 -1 8v9v26q0 5 -1 8q0 7 -1 11q0 5 -0.5 8.5t-0.5 8.5q-1 5 -1 11v11v18t1 19q0 8 0.5 15.5t0.5 15.5q-1 5 -2 10.5t0 11.5v8q-2 8 -2 16.5v17.5q1 10 1 20v20q0 5 -0.5 10.5t-0.5 10.5v42v10t2 10q0 2 2 4q2 9 11 10h13.5t13.5 1q5 0 10 0.5
t10 -0.5q3 0 7 -2q8 0 11 -7l6 -17q1 -5 2 -9t2 -9q2 -9 3 -18t1 -18t-0.5 -18.5t-0.5 -18.5q-1 -5 -0.5 -9.5t-0.5 -9.5q0 -5 -0.5 -9t-0.5 -9q0 -20 0.5 -40.5t0.5 -40.5q0 -18 0.5 -36.5t0.5 -37.5q0 -3 1 -6t1 -6v-49v-27t1 -27q0 -7 1.5 -13.5t2.5 -13.5v-86l3 -23
q2 -6 2 -12v-12q2 -4 2 -8v-8q0 -6 3 -10q1 -2 2 -3t1 -2q2 -2 4 -6q2 -2 4 -3q4 -2 8 -2h8h10l12 2t13 1q5 0 11 1t11 2q6 1 11 4q1 4 2 8.5t2 9.5q0 2 0.5 3t0.5 3v16l-1 4l-1 7q-2 5 -2.5 11t-1.5 11q0 6 0.5 11t1.5 10q0 6 1 9v1q0 8 1 12q0 1 1 1v5q0 5 2 13
q0 3 0.5 5.5t0.5 5.5q1 1 1 4v1q0 2 1 2q1 11 0.5 21.5t-0.5 21.5q0 6 -0.5 11.5t-0.5 11.5v21q-1 0 -1 1q0 2 -0.5 4.5t-0.5 4.5v11q1 6 1 11.5v11.5v22t-1 22q-1 10 -1 20t-2 21q-1 12 -0.5 24t0.5 23q0 23 3 46q1 11 1 22.5t1 22.5v33q2 6 2 10v12.5t1 12.5v9t-2 9t1 9
q-1 4 1 8q2 5 6.5 6t9.5 -1q-1 0 -0.5 -0.5t1.5 -0.5h1h5l10 1h6q2 0 2.5 0.5t2.5 0.5h5.5t7.5 -1l2 -1q2 2 4.5 2t4.5 1z" />
    <glyph glyph-name="V" unicode="V" horiz-adv-x="423" 
d="M98 706q6 2 10 -2q2 -2 1.5 -3.5t-0.5 -3.5v-3q2 -6 4 -16l3 -21q2 -11 4.5 -22.5t5.5 -22.5l5 -20q1 -5 2.5 -9.5t1.5 -9.5q2 -11 3.5 -23t3.5 -23q4 -23 8 -45.5t9 -45.5t9 -45.5t6 -45.5t6 -46.5t8 -46.5q2 -11 2.5 -22.5t1.5 -22.5q1 -8 2 -16.5t4 -16.5q1 8 1.5 15
t2.5 15q1 10 2.5 20t3.5 20q2 11 4.5 22t4.5 22l10 43q2 11 5 22t5 22l4 22t7 22l4 14q1 11 6 25q3 11 5.5 22t6.5 22q8 21 10.5 43.5t7.5 45.5q3 11 5 22.5t3 23.5q0 12 0.5 24t4.5 23l1 3q-1 1 -1 2q-4 9 6 13q5 2 10 2t10 1q11 1 23.5 2.5t24.5 -0.5l12 -2l2 -1q3 0 5 -1
q11 -4 8 -13q-1 -5 -3.5 -10t-4.5 -10q-2 -6 -5 -9l-1 -6q-2 -8 -4 -16.5t-4 -16.5q-4 -19 -7 -38t-8 -38q-9 -36 -21 -73q-6 -18 -10.5 -36t-8.5 -37q-5 -23 -8.5 -47.5t-9.5 -47.5q-7 -23 -13.5 -46.5t-12.5 -46.5q-3 -12 -5.5 -23.5t-4.5 -23.5q-2 -11 -5 -22.5t-6 -22.5
l-10 -43q-2 -8 -4 -16.5t-3 -16.5l3 -9q0 -5 2 -15q2 -8 -5.5 -12.5t-13.5 -6.5q-5 -1 -9 -1.5t-9 -0.5l-1 -1q-2 -1 -7 -1l-8 -1h-6q-2 -1 -3 -1l-8 -2q-5 -2 -11 -3t-11 1q-2 1 -4.5 2.5t-0.5 4.5v2q0 1 -1 1t0 2q2 6 2 9q-1 2 -1 6v4q0 3 -0.5 5.5t-1.5 5.5v3
q-1 8 -2 14.5t-3 13.5q-5 20 -8.5 39.5t-7.5 39.5q-2 11 -4 21t-4 21t-3.5 20.5t-3.5 19.5l-5 25q-4 17 -7.5 33.5t-6.5 33.5q-5 23 -10.5 46t-9.5 46t-6.5 47t-6.5 47l-9 47q-3 12 -5.5 24t-4.5 24q-2 8 -2.5 16.5t-2.5 16.5v1q-2 8 -2 10q-6 16 -6 35l-3 8q-1 2 -2.5 3
t-3.5 3q-1 4 2 7t6 4q4 2 12 2q5 1 8.5 1h8.5l22 -1l10 2t9 1v-1z" />
    <glyph glyph-name="W" unicode="W" horiz-adv-x="606" 
d="M565 683q2 -4 -1 -8.5l-5 -7.5l-1 -1q-1 -7 -2.5 -13.5t-3.5 -12.5q-3 -10 -5.5 -20t-4.5 -21q-2 -5 -3.5 -10.5t-3.5 -10.5t-2.5 -10.5t-2.5 -10.5l-3 -13l-2 -17q-5 -38 -11.5 -74.5t-16.5 -72.5q-7 -23 -11.5 -46.5t-9.5 -46.5t-11 -46t-11 -46q-3 -12 -5.5 -24
t-4.5 -24l-3 -24q-1 -5 -1 -10.5t-2 -10.5l-3 -10q-1 -3 -1 -9q-1 -5 -2 -10.5t-1 -10.5q0 -4 -2 -12l-1 -4l1 -5q0 -6 0.5 -12t1.5 -12q1 -3 0.5 -7t-2.5 -6q-3 -3 -10 -5q-6 -2 -9 -2h-1q-4 0 -12 -2q-13 0 -25 -3h-2l-2 -1h-6q-8 0 -10 4q-3 4 -3 10q0 3 -0.5 5.5
t-0.5 5.5q-1 6 -1 12v12q0 2 1 3l-2 9q-2 8 -3 16l-2 16q-2 10 -4 17l-5 14q-6 18 -9 36q-1 5 -1.5 9t-2.5 9l-4 16q-2 9 -2 18v18v16.5t-2 16.5t-2 16t-1 16q-1 11 -2 21t-2 21q-1 10 -1.5 19.5t-2.5 18.5q-2 11 -5.5 21.5t-6.5 21.5t-6 22.5t-5 22.5l-4 24l-4 24l-3 14
l-6 -61q-1 -6 -1 -12v-12v-24v-23q0 -5 -0.5 -10.5t-0.5 -10.5q0 -11 -0.5 -22.5t-1.5 -22.5t-2.5 -22.5t-2.5 -22.5l-2 -24t-3 -24t-2.5 -24t-1.5 -24q-2 -19 -4.5 -37.5t-4.5 -37.5q-2 -12 -2.5 -24t-1.5 -24q-1 -6 -1.5 -12t-0.5 -12v-9v-1v-3l-1 -3q1 -2 1 -6
q-1 -5 -6.5 -7t-9.5 -2q-5 1 -10.5 0.5t-10.5 -0.5q-4 -1 -11.5 -0.5t-9.5 0.5h-7q-3 0 -6.5 0.5t-6.5 0.5q-6 -2 -11 1q-2 2 -2 3v3l-1 2q-1 8 -4.5 15.5t-4.5 15.5q-1 5 -1.5 10t-0.5 10v21q0 5 -0.5 9.5t-1.5 9.5l-3 18l-8 37q-4 20 -6 39.5t-4 39.5q-2 10 -3.5 19.5
t-3.5 19.5l-10 37q-7 23 -12.5 45.5t-8.5 45.5l-6 48q-2 11 -4.5 22.5t-4.5 22.5q-8 38 -15.5 76.5t-11.5 77.5l-1 2q-1 5 -2.5 10.5t-2.5 10.5q0 2 -2 6q-4 3 1 8l4 3l3 2l4 1l2 1h4.5t4.5 -1h7h12t12 1q5 1 10.5 1.5t10.5 -0.5q9 -1 9 -11q0 -8 1 -12l3 -10l1 -7
q4 -10 5 -15q2 -11 3.5 -21t4.5 -21q2 -5 2 -10.5t1 -10.5l4 -20q2 -12 3 -24t3 -24l3 -24q1 -5 2 -10.5t2 -10.5l4 -21q1 -5 1 -9.5t1 -9.5q2 -11 4.5 -22.5t5.5 -22.5q2 -6 2 -12t1 -12q1 -5 1 -10.5t1 -10.5v-3l9 -34q2 -6 3 -12l2 -12l4 -20q1 -8 2 -15t2 -15l2 -22v-3
l6 30l2 43l2 43l1 13q0 4 2 12q1 5 1 9.5t1 9.5l5 21q1 5 1.5 10t1.5 10q2 14 3 28.5t2 28.5q1 11 2.5 22.5t3.5 22.5l2 22q1 5 1 10.5t1 10.5q2 11 3.5 22t3.5 22q3 22 3 46q0 4 6 6l1 12q0 5 5 7q1 3 6 3t9 -1t9 -3t9 -2.5t9 -2.5t9 -3.5t8 -3.5q3 -2 6.5 -3.5t5.5 -3.5
q3 -3 3 -6q4 -10 5 -15v-1q2 0 4 -2q2 -8 3.5 -15t3.5 -15t2.5 -15.5t2.5 -15.5q2 -7 2 -14t2 -14l6 -27l7 -24q2 -5 3 -10t3 -10t5 -9t5 -9t3.5 -10t3.5 -10q5 -17 7.5 -35t4.5 -36l2 -12t1 -12q0 -5 -0.5 -10.5t-0.5 -10.5t1 -10l2 -10t1 -10.5v-10.5q0 -10 -0.5 -19.5
t1.5 -19.5q1 -5 1.5 -9t2.5 -9q2 14 5 27t6 27l12 52q5 23 9 46.5t9 46.5q2 11 5.5 22.5t5.5 22.5q2 12 3.5 24t3.5 24t6 23.5t8 22.5t7 23l6 24l2 15q2 12 3.5 24t3.5 24q1 5 2.5 10t2.5 10q0 4 2 10q1 2 1 4.5t1 4.5q3 12 14 13q5 1 9 -1t9 -4l4 -1q9 -3 19 -3
q5 0 10.5 -0.5t10.5 -2.5q4 -1 4 -5q2 -2 3 -4z" />
    <glyph glyph-name="X" unicode="X" horiz-adv-x="352" 
d="M262 713q5 -1 8.5 -2.5t8.5 -2.5t15 -5q6 -2 9 -4h2q5 0 10 -1.5t3 -6.5l-2 -8q-2 -5 -3.5 -9t-3.5 -9l-5 -11q-1 -2 -2 -4.5t-2 -4.5q-2 -10 -5.5 -19.5t-5.5 -19.5l-3 -12l-3 -10l-6 -21q-3 -11 -6 -22.5t-5 -22.5q-3 -11 -6 -22.5t-7 -22.5q-14 -44 -30 -87
q-3 -8 -6.5 -16.5t-7.5 -16.5q1 -5 3 -8.5t4 -7.5q3 -5 5.5 -9.5t4.5 -9.5q5 -10 9 -19.5t8 -20.5q8 -21 13.5 -42.5t10.5 -43.5q3 -11 5.5 -22.5t5.5 -22.5l10 -44q2 -11 5 -21t6 -21q1 -2 1 -5t1 -5l3 -9q1 -2 3 -8q4 -4 7 -10q2 -4 2.5 -8t-2.5 -7q-5 -5 -12 -6t-13 -2
t-12 -1.5t-12 -0.5q-7 -1 -13.5 -1.5t-12.5 1.5q-5 1 -10.5 1.5t-10.5 0.5q-3 0 -6 1.5t-2 5.5q1 5 1 10.5t1 10.5l2 15l-10 33q-2 6 -2.5 12t-1.5 12q-1 5 -1.5 11t-2.5 11q-2 8 -3 16l-2 16q-1 5 -1.5 10.5t-2.5 10.5l-4 18q-2 13 -5.5 25.5t-6.5 25.5l-1 2
q-4 -12 -7.5 -24t-8.5 -24l-8 -22l-4 -10l-1 -3l-17 -52l-4 -12l-4 -12l-7 -17v-1l-1 -2l-2 -5l-1 -2v-9t1 -9t1 -15q0 -5 2 -15q1 -7 -6.5 -10t-12.5 -3q-4 1 -7 1.5t-6 0.5q-8 0 -12 1q-6 -1 -14 -1t-12 5h-11q-5 0 -9 4q-2 2 -2 5.5t1 6.5l1 2l1 2q2 5 3 8.5t4 6.5l4 15
q3 10 4.5 20t3.5 21q10 43 24 88q3 11 6 21t7 21q7 21 18 43l5 10l2 5l1 3l6 19q3 11 7 21.5t9 21.5l5 12l1 3l1 4l4 13q-4 11 -7 21t-7 21l-16 46t-15 46q-3 11 -6.5 22.5t-7.5 22.5l-8 23q-2 5 -3.5 11t-3.5 11q-5 11 -8 22t-5 22q-1 4 -1 7.5t-1 7.5l-3 7l-5 11
q-1 2 -2 4.5t-2 4.5q-1 5 3 8t8 5q11 4 18.5 5t17.5 1q5 0 15 -2l4 -1q4 2 7 2q2 0 6 -0.5t5 -3.5q2 -10 4 -15q7 -19 15 -37t13 -38q4 -17 7.5 -33.5t9.5 -33.5q3 -9 6.5 -17.5t7.5 -16.5l7 -17l6 21l10 46q2 11 5.5 22t7.5 22t7.5 22.5t6.5 22.5q2 5 3.5 10.5t3.5 10.5
l1 5q2 5 3 10.5t2 11.5q0 2 3 4q2 3 6 5t9 2q7 1 15 0z" />
    <glyph glyph-name="Y" unicode="Y" horiz-adv-x="409" 
d="M375 715q8 2 12 -2q3 -3 -1 -11q-2 -2 -2.5 -5t-2.5 -5l-1 -1l-2 -4q-2 -2 -3.5 -4t-3.5 -4q-6 -6 -10 -13q0 -5 -2 -13q-5 -23 -9.5 -45t-9.5 -45t-12 -45t-15 -45q-2 -5 -4 -10.5t-4 -10.5q-1 -6 -2 -11.5t-3 -11.5q-2 -8 -3.5 -15.5t-3.5 -15.5t-4.5 -15.5t-4.5 -15.5
t-3.5 -16.5t-3.5 -16.5t-3.5 -16.5t-4.5 -16.5q-5 -18 -12 -32q-3 -7 -5 -14t-4 -13v-5q0 -4 0.5 -7.5t0.5 -7.5t-0.5 -8t-0.5 -8q0 -2 0.5 -4.5t0.5 -4.5q-1 -2 -1 -5q0 -4 -0.5 -7.5t-0.5 -7.5q0 -9 -0.5 -18t-0.5 -18v-14q0 -6 -2 -16q0 -8 0.5 -16t0.5 -16v-2
q2 -15 2.5 -30.5t1.5 -30.5q1 -11 -12 -17.5t-24 -4.5l-4 -2h-3q-4 -1 -7.5 -1.5t-8.5 0.5h-9q-7 0 -8 3q-2 5 -1 10.5t0 10.5v22q-1 5 -2.5 10.5t-1.5 10.5v11q-2 6 -2 9q0 2 2 4q-1 2 -1 7q-1 7 -1 13.5v14.5l-3 29v15t1 15v16t1 16q-1 3 -1 11q-1 11 -1.5 21.5t0.5 21.5
l-1 2t-1.5 4t-0.5 5q-4 11 -5 19q-2 12 -4 19q-4 8 -7 16.5t-6 16.5q-5 11 -10 21t-10 21t-8 21t-6 21q-8 23 -17.5 44t-15.5 44q-14 48 -24 96q-2 6 -3.5 12t-3.5 11t-4 9.5t-4 9.5q-1 3 -2 5.5t-2 5.5q0 6 -2 9l-6 17q-2 4 2.5 6.5t7.5 3.5h3q3 3 8 3q8 1 16 1t16 1
q5 1 8.5 1h8.5q7 2 13 -2q5 -5 8 -10.5t5 -10.5q2 -7 3 -14t3 -15q3 -16 6 -31.5t5 -32.5l3 -17l2 -6t3 -7q0 -2 1 -3q3 -11 6.5 -20.5t7.5 -20.5q2 -5 4.5 -10.5t4.5 -11.5t3.5 -11.5t3.5 -10.5q4 -11 8 -21.5t8 -21.5q3 -11 6 -21.5t7 -20.5l6 -15h2v1q1 0 5 4q0 2 1 4
q-2 4 1 5l3 16q1 5 2.5 10t3.5 10l4 19q0 5 0.5 10.5t1.5 10.5q2 5 2.5 10t1.5 10l4 20t4 21q5 22 10 43t10 43q5 21 12 42t12 42q-2 2 0 4q5 7 13 7q5 0 8.5 -0.5t7.5 -0.5q2 0 3 0.5t2 0.5q2 1 6 1q1 1 2.5 1.5t-1.5 -1.5l11 3q5 1 10.5 2t10.5 2q5 0 8 1q2 1 7 1z" />
    <glyph glyph-name="Z" unicode="Z" horiz-adv-x="360" 
d="M50 704q3 1 8.5 1t7.5 -3q2 1 7 1t15 -2h2h9q7 0 13.5 0.5t12.5 -0.5q7 -1 13.5 -1.5t13.5 -0.5l117 1h12q6 2 9 2t6 0.5t6 0.5h2l3 -1l-2 1q14 2 24 -2q4 -3 4 -8v-3q2 -2 2 -4q0 -10 -4 -17q-1 -1 -1 -3.5v-4.5q0 -3 -2 -9q-3 -8 -4.5 -16t-5.5 -16l-7 -15
q-1 -2 -1.5 -3.5t-1.5 -3.5l-3 -10q-3 -8 -5.5 -17.5t-6.5 -17.5q-4 -9 -8.5 -18t-9.5 -18l-12 -29l-13 -28l-21 -48l-4 -10l-1 -2l-4 -12l-33 -96q-7 -20 -13 -40.5t-14 -40.5l-2 -6v-2q-1 -4 -1 -12q-1 -6 -2 -11.5t-3 -11.5q-2 -5 -3.5 -10.5t-3.5 -10.5l-4 -12l-1 -10
l-2 -16t1 -16l1 -9l4 1l9 1l11 2h4h4h1l23 2q13 1 25.5 0.5t25.5 -0.5q8 0 12 -1l3 -1h4h9q3 -1 5 -1t5 -2l3 -1l1 -1q3 0 5 -2q3 -3 4 -7t3 -8l4 -18q2 -11 4 -21t4 -21v-2l1 -3q2 -3 -1.5 -5.5t-5.5 -4.5q-8 -4 -14 -1q-8 2 -16.5 5.5t-16.5 6.5q-4 0 -8 2l-4 1
q-5 1 -15 5q-10 2 -19.5 2h-19.5h-8h-4h-8l-8 -1q-4 -1 -12 -1h-3h-4h-5l-20 -3q-8 -1 -15 -1.5t-15 -0.5h-11l-15 -1l-9 1l-19 -1q-5 0 -9.5 1.5t-4.5 7.5v16.5t2 16.5q2 7 4 13.5t3 14.5q1 4 2 7.5t2 7.5l2 14l3 16l2 6t-1 6q-1 4 4 6q1 18 6 36q5 20 11.5 38t11.5 37
q3 10 5 19.5t5 18.5q2 9 5 17.5t6 16.5q4 11 7 22t8 22t8.5 21.5t8.5 21.5q4 10 8 18.5t6 19.5q2 6 3 12t3 11l2 8l2.5 5l2.5 5l4 10q5 13 11.5 25.5t13.5 24.5l4 7l11 23q5 9 10.5 18t10.5 18q-10 0 -19.5 1t-19.5 1q-6 0 -12 0.5t-12 0.5h-23h-24t-24 1q-7 -2 -14 -1.5
t-14 0.5h-2h-5q-8 0 -12 1q-12 3 -10 14v11v12v10.5t-1 10.5q-1 4 -1.5 8.5t0.5 8.5q1 8 12 13q4 2 8 2z" />
    <glyph glyph-name="bracketleft" unicode="[" horiz-adv-x="262" 
d="M93 746q3 1 5.5 0t4.5 -1q7 -1 14 0q3 1 5.5 0.5t5.5 -0.5t6 -0.5t6 -0.5h3q5 0 9 0.5t9 0.5q14 -1 27.5 -1.5t27.5 -4.5l3 -1h1q6 2 9 -2q3 -3 2.5 -6.5t-1.5 -7.5l-2 -23q-1 -5 -0.5 -10.5t-1.5 -10.5q-1 -4 -6 -4t-13 2q-11 -2 -21 -2h-21h-10q2 -8 2 -12
q0 -12 -1 -24t-1 -24q0 -24 -4 -44l-3 -21q-1 -5 -1 -10.5v-10.5t-1 -10.5t-1 -10.5q0 -4 1 -9t1 -10q1 -11 0 -22.5t-2 -22.5q0 -5 -0.5 -10.5t-0.5 -10.5v-22q0 -11 -0.5 -20.5t1.5 -20.5q2 -12 3 -24t1 -24v-49l-1 -98v-46v-24v-10t1 -10l2 -12l2 -12l1 -19q2 -5 5 -6h5
q5 1 10.5 1.5t10.5 0.5q8 0 15 1t15 1t11 -8.5t3 -14.5v-6l1 -7q1 -6 1.5 -11.5t0.5 -10.5v-1q2 -5 3 -9.5t2 -9.5t-2.5 -7.5t-8.5 -0.5q-2 1 -7 1l-2 -1h-57q-9 -1 -18 -1t-17 -1h-3q-11 -6 -21 -3q-5 -1 -9 -1.5t-9 0.5q-6 0 -6 5v9q-2 2 -2 5v6q0 2 -0.5 4.5t-0.5 5.5v19
q0 6 -0.5 11.5t-0.5 10.5v22q0 23 0.5 46.5t1.5 46.5q1 46 0 93q0 11 0.5 22.5t1.5 22.5q1 9 1 18.5t1 18.5q-2 10 -3 19.5t-2 19.5q-1 12 -0.5 24t-0.5 24t-2 23.5t-2 23.5q-2 12 -1.5 24t0.5 24q0 24 3 48q2 12 3 24l2 24l4 48q2 24 3 48t2 49l1 5q0 3 2 9t6 7z" />
    <glyph glyph-name="bracketright" unicode="]" horiz-adv-x="247" 
d="M164 751q8 0 6 -7q-1 -2 -1.5 -5t-1.5 -5l-3 -8v-8l1 -24v-48q0 -5 -0.5 -10.5t-0.5 -10.5v-23q0 -6 -0.5 -12t-0.5 -12v-22l2 -97v-24t-1 -24q-1 -11 -1 -22.5v-22.5v-11.5t-1 -11.5q-1 -5 -1 -10.5v-10.5v-7l1 -9l1 -4q3 -12 1 -21l-1 -2v-7l4 -48l4 -48t3 -48t1 -48
v-12t1 -12l2 -22q1 -9 0.5 -18t-1.5 -18l1 -8v-1q0 -4 0.5 -7.5t0.5 -7.5t0.5 -8t-1.5 -8q-1 -5 -9 -5l-3 -1q-5 -2 -9 -3t-9 -2q-11 -3 -21.5 -4.5t-21.5 -3.5q-10 -3 -20.5 -4t-19.5 -6l-3 -1q-6 -2 -9 2q-3 1 -3 6q0 2 -0.5 4t-0.5 4l2 24q-2 7 0 12v2q0 2 3 4q6 9 17 12
q5 1 9 1.5t9 0.5l7 1q1 8 1 15v15v9.5t1 9.5l1 9v8q0 8 -1 16.5t-2 16.5q-1 5 -1 9v9q0 4 0.5 8t0.5 8l-2 18t-3 18l-4 40t-1 40l1 20q0 5 -0.5 9t-1.5 9t-0.5 9t-0.5 8q-1 5 -1.5 9t-0.5 9q0 1 2 3q-1 9 0 18t1 18v10.5t1 10.5t1 10.5v10.5q1 11 0 21t1 21q1 3 1.5 5.5
t0.5 5.5q0 6 1 9v1l-1 11q-1 6 -1 12v12q0 25 -1.5 49t-0.5 49l2 50l1 36l-12 2t-12 1q-5 0 -10 -1t-10 -1h-1l-5 -1h-9q-7 0 -7 7v2q-2 5 -1.5 11.5t1.5 11.5q1 7 2.5 13.5t2.5 13.5q0 4 3 5t5 -1h4q13 4 29 1q4 -1 10 -3h3h14h12t12 1q10 0 15 -1q10 2 15 2q4 0 7 1t7 1
h-1z" />
    <glyph glyph-name="underscore" unicode="_" horiz-adv-x="331" 
d="M280 21h9t9 -1q2 0 4.5 -0.5t4.5 -0.5q4 0 7 -1q9 2 13 -3q3 -4 3 -13q0 -4 0.5 -7.5t-0.5 -6.5q-1 -5 -2 -10.5t-1 -11.5q0 -5 -0.5 -9.5t-2.5 -8.5q-6 -10 -18 -7q-11 3 -20 3l-12 2l-12 2h-5l-17 -1l-17 1q-35 0 -69 3h-18t-18 1h-34q-9 0 -18 -0.5t-18 -1.5l-16 -2
t-16 -3q-2 -1 -4 1l-5 -1q-7 2 -7 8q-1 7 1 13t4 13v5l1 4v20q0 8 7 6l2 1q9 2 19 2.5t20 0.5q9 0 18 -0.5t18 -0.5q19 0 37.5 0.5t37.5 0.5t37.5 0.5t37.5 0.5z" />
    <glyph glyph-name="grave" unicode="`" horiz-adv-x="226" 
d="M106 919q5 -4 5 -9t3 -10l1 -2q2 -4 5 -7t5 -7t4 -7.5t4 -7.5l8 -14q5 -8 8.5 -16.5t7.5 -16.5l7.5 -15t8.5 -15l2 -2q2 -4 4.5 -7t0.5 -8q-2 -4 -6.5 -5.5t-8.5 -2.5q-8 -2 -15.5 -4t-14.5 -6l-7 -4q-3 -2 -6 1q-2 2 -3.5 5t-3.5 5t-3 5t-3 5q-3 3 -1 5l-2 5l-6 15
q-3 8 -5.5 15t-6.5 14q-4 8 -8.5 15.5t-9.5 15.5l-16 26q-4 2 -5 5l-4 4q-4 3 -2 8t7.5 8t10.5 5l24 9q5 2 12 4t12 -3z" />
    <glyph glyph-name="a" unicode="a" horiz-adv-x="400" 
d="M228 718q5 0 11 0.5t11 -2.5q2 -1 3 -1t3 -1q4 -2 4 -6l1 -2q2 -5 3.5 -10t3.5 -10t4.5 -8.5t4.5 -8.5t2.5 -10.5t1.5 -10.5l3 -17q2 -11 3 -21t4 -20l1 -3l1 -2l1 -3l1 -3l1 -6l3 -11l5 -21l3 -10l1 -3l1 -3l1 -6l5 -22l9 -44l3 -12l2 -13l2 -12l3 -13l2 -14l1 -7l1 -5
q2 -8 2.5 -14.5t1.5 -12.5l1 -12l1 -5v-2v-1l1 -3l1 -14l1 -13l1 -13l1 -7v-2q1 -5 1.5 -8.5t1.5 -7.5l1 -13v-4v-3v-3l1 -5q1 -5 1 -10v-10v-17v-10v-3l1 -8v-6q1 -6 1 -11v-10v-8v-1l1 -4l3 -16l3 -17l1 -5v-3l1 -9l1 -7v-2v-2q1 -3 1 -9v-5v-4v-3q3 -5 4 -10.5t3 -10.5
t3 -10.5t1 -10.5q0 -7 -8 -7h-6l-1 -1q-3 -2 -7 -2t-7 1h-13q-3 -1 -6 -1t-6 -1l-8 -1l-4 -1l-10 -2.5t-8 3.5q-2 6 -2.5 12t-2.5 12l-2 4v2l-1 3q-2 3 0 5l-2 11v7l-1 7l-1 14q-1 8 -0.5 15.5t-1.5 15.5l-5 28q-2 8 -3.5 16t-1.5 16q0 7 0.5 13.5t-0.5 13.5
q-1 16 -2.5 31.5t-2.5 31.5q-1 10 -1 19.5t-1 19.5h-2h-4h-2h-13l-21 1l-7 1l-29 3l-42 2q-3 -9 -5 -18.5t-4 -19.5q-3 -12 -6 -23.5t-5 -23.5q-5 -25 -12 -46q-2 -5 -3 -10.5t-2 -11.5q-1 -5 -1 -10.5t-1 -10.5q-1 -6 -2 -11.5t-2 -11.5t-1 -12v-12q0 -12 0.5 -24t0.5 -24
v-6.5t-1 -6.5l1 -3q0 -2 0.5 -4.5t0.5 -4.5t-2 -4l-2 -3q-3 -3 -6 -3h-6h-8q-5 -1 -10.5 -1t-10.5 2h-13q-6 1 -12.5 1t-12.5 1q-4 0 -4 5q1 5 1 10.5v10.5l-1 2l-1 3v3v3v5l1 8l1 7l1 9l1 5l1 2l1 6l2 15l1 16v16v2v4l1 7l2 12l5 19l2 7l1 3l1 2l1 2l1 3v1l3 13l1 4l1 2v1
v1l2 5l1 3l1 6q1 5 1 9t1 9l4 17q4 16 6 33q2 11 3.5 22.5t5.5 22.5l8 22t7 22t6 23t7 23t7.5 22.5t5.5 23.5q5 24 10 48.5t13 47.5t13.5 46.5t15.5 46.5q2 2 6.5 3.5t8.5 0.5l10 20l1 2l1 3l3 5l1 2l1 3l2 2h2q2 4 6 4zM214 590q-2 -9 -5 -17.5t-5 -17.5q-2 -10 -3.5 -19.5
t-3.5 -19.5q-4 -20 -9 -40.5t-10 -40.5q-2 -10 -4 -19.5t-4 -19.5l-2 -11l11 -4q5 -2 9 -2.5t9 -2.5l5 -2q2 -1 1 0q8 0 12 -1l25 1l17 1l-7 25q-3 11 -4.5 22.5t-3.5 22.5l-4 24l-4 24t-2 24t-2 24q-2 11 -4.5 22.5t-5.5 22.5l-4 14z" />
    <glyph glyph-name="b" unicode="b" horiz-adv-x="379" 
d="M68 724h16q5 0 7 -1h4l8 1h18q9 1 18 0.5t17 -1.5q9 -1 18 0t18 -1q4 -1 8 -2.5t8 -1.5t6 -1q4 0 12 -2q6 -2 8 -4q9 1 18 -6q2 -2 5 -2.5t5 -2.5q6 -4 9 -7q5 -4 9 -7.5t8 -7.5q7 -8 13 -19q4 -7 7 -19q2 -5 2.5 -10.5t2.5 -10.5l5 -20q6 -23 9 -45q2 -13 2 -25t-1 -25
q-1 -11 -0.5 -21.5t-1.5 -21.5q-2 -6 -3.5 -11.5t-2.5 -11.5l-3 -9l-3 -6l-1 -2q-3 -8 -11 -13.5t-16 -7.5q-3 -1 -9 -1l-2 -1q5 -4 9 -7t9 -6q7 -4 12 -13q11 -15 19 -36q4 -11 6.5 -22.5t4.5 -23.5q2 -11 2 -22.5v-22.5v-49v-24q0 -5 -1 -10.5t-3 -10.5t-2 -10.5t-1 -10.5
q-1 -10 -6 -19l-3 -6l-1 -7q-1 -5 -1.5 -10.5t-2.5 -10.5q-4 -11 -13 -22l-7 -8l-3 -6l-3 -4l-2 -2l-8 -10q-2 -2 -4.5 -5t-5.5 -6l-6 -6t-8 -5q-2 -2 -4.5 -2.5t-5.5 -2.5h-1l-1 -1l-4 -1q-9 -3 -16 -3l-14 -1h-7q-8 0 -11 1l-3 1h-3l-9 1h-5l-3 1h-7q-11 2 -21.5 3
t-20.5 2q-8 -1 -17 -0.5t-18 1.5q-13 -6 -26 -3q-11 3 -9 11q-4 8 -3 18.5t3 18.5q1 5 0.5 10.5t-0.5 10.5l1 24l3 90l2 44q0 5 0.5 10.5t1.5 10.5t0.5 9.5t0.5 9.5t1 10.5t1 10.5l1 21q1 11 0.5 21.5t-0.5 21.5v23v3v5v11q-1 11 -1.5 22.5t-2.5 22.5l-2 13q-1 2 -0.5 4.5
t0.5 4.5q-1 5 -0.5 11t0.5 11v12t1 12q1 5 1.5 10.5t-0.5 10.5q0 3 -0.5 6t-0.5 6v9q-1 5 -1.5 10.5t-0.5 10.5t-0.5 10.5t-0.5 10.5v17q1 21 0 42q0 6 -0.5 12t-1.5 12l-1 11q-1 1 -1 4q0 2 -0.5 3.5t-0.5 3.5t-1 3.5t-2 3.5t-0.5 4t0.5 4q0 3 3.5 5t7.5 2q3 3 8 3z
M148 653q-1 -1 -2 -1.5t-2 -1.5l-2 -1v-4l1 -16v-16l2 -45v-6v-6v-11v-23v-23v-11v-12l-1 -24v-2l5 -3q2 -1 2.5 -2t2.5 -2l12 -1h3l4 -1h2h13h6h3l25 4l5 2l9 2l4 1q1 2 1.5 4l1.5 6l2 10q2 5 2 11v11q1 11 1.5 21.5t-1.5 21.5q-1 7 -1.5 13.5t-0.5 13.5q0 5 0.5 8.5
t-1.5 8.5t-4.5 10.5t-4.5 10.5l-4 10l-4 10l-5 11l-3 2l-4 4l-7 8l-7 3l-3 2h-22l-23 1zM143 374q-3 -2 -3 -4q0 -1 -2 -3v-37v-52l-1 -27l-1 -14v-3v-3v-2v-1v-3q-2 -23 -2 -48.5t-2 -52.5l-1 -7v-3v-2v-1l-5 -26v-2v-2v-4v-11q10 -1 19 -2t17 -2l8 -1h6l4 1q6 2 10 2
q-8 -2 3 0h3l11 4h1l8 3l24 18q2 2 6 8l1 20v6v4v5q1 5 2 9t2 7l3 9v3v1v3v24v24v25v22v2v2v5l-1 9v3l-2 8q-2 5 -3 9.5t-3 9.5q-7 17 -20 33q-6 7 -13 13q-4 3 -7.5 6.5t-8.5 5.5l-8 4q-3 1 -6 1l-20 1q-3 0 -5 2h-4z" />
    <glyph glyph-name="c" unicode="c" horiz-adv-x="349" 
d="M210 713q8 -1 17.5 -4.5t15.5 -5.5l4 -2l8 -5q8 -5 16 -12t13 -16q2 -5 4 -9t4 -9q2 -2 2 -3q1 -2 2.5 -4.5t2.5 -4.5l3 -8q2 -5 3 -9t2 -9q2 -10 3.5 -19.5t3.5 -18.5q2 -10 4 -19.5t4 -19.5l3 -18q1 -4 2 -7.5t0 -7.5q-1 -5 -4.5 -6.5t-7.5 -1.5q-10 0 -19.5 -1
t-19.5 -2q4 0 1 -0.5t-4 -0.5l-8 -1q-8 0 -12 4q-5 2 -7 5t-2 6.5t-1 6.5l-2 14q-1 4 -1.5 7t-0.5 7v3l-1 3q-3 10 -3 21l-1 19l-1 4l-5 11l-3 9l-1 3l-1 1l-2 2l-3 2l-9 5l-2 1h-1l-5 2l-10 2h-4h-3l-5 -1l-8 -5l-3 -3l-3 -3l-2 -2l-4 -7l-2 -4l-1 -2l-6 -18
q-2 -5 -3 -10.5t-2 -10.5v-15t-1 -15q-1 -12 -2.5 -24t-2.5 -24l-3 -48l-3 -25q-1 -6 -0.5 -12t0.5 -12q0 -11 -0.5 -22.5t-0.5 -22.5v-48t-1 -48v-6q2 -8 2.5 -15t1.5 -15t1 -16.5v-17.5l1 -3l1 -7l2 -14q0 -2 0.5 -5t-0.5 3q1 -7 1.5 -13.5t0.5 -13.5q0 4 -0.5 3.5
t-0.5 -2.5l1 -3l1 -6q2 -7 3.5 -13.5t3.5 -13.5l1 -2l3 -6l2 -3l2 -3l2 -2l2 -1l3 -1h2h10.5t11.5 1l10 5l2 1l5 5l1 2l3 4l4 8l4 7v2l1 8v9t1 9q1 4 2 7t1 7l1 12l-1 2q0 4 1 7t1 7l1 14q0 5 1 10.5t6 7.5q5 3 14 1q3 -1 5.5 -2t5.5 -2q5 -2 11 -2.5t12 -1.5q5 -1 12.5 -3
t7.5 -9l1 -20v-13.5t-1 -13.5v-7t-2 -7l-1 -2l-3 -21q-1 -4 -2 -7.5t-2 -7.5l-1 -5v-3l-1 -7l-3 -12q-9 -25 -29 -40q-10 -8 -20 -14.5t-23 -10.5q-7 -2 -13.5 -3.5t-14.5 -2.5h-20l-21 2q-5 1 -8.5 2t-7.5 3q-13 -1 -23.5 5t-18.5 16q-6 9 -8.5 20t-5.5 22l-1 4
q-2 6 -4.5 12t-3.5 12v1l-3 9q-6 23 -9 46l-2 21l-1 10v3v2q-1 5 -2 10.5t-2 10.5q-1 6 -1.5 12t-0.5 12q0 5 0.5 10.5t1.5 10.5v3q-2 13 -3 25.5t0 25.5q1 12 2 23.5t1 23.5q0 21 3 44l1 36v36q0 2 0.5 4.5t0.5 4.5v24t1 24q0 6 1 11.5t3 11.5q1 5 1 10.5t1 10.5l3 21
q1 5 2.5 10.5t2.5 10.5q4 20 14 41q8 15 18 26q0 2 1 3q5 3 8 8q2 2 5 4t5 4q6 6 13 9l13 7q7 4 14 5.5t15 2.5h5q15 3 29 2z" />
    <glyph glyph-name="d" unicode="d" horiz-adv-x="373" 
d="M135 728h21h9.5t8.5 -2q2 -1 6 -1l11 -2q5 -1 9 -2t9 -2q8 -2 15.5 -5t13.5 -8q3 -1 9 -5q2 -2 3.5 -3t3.5 -3q4 -4 6 -5q4 -2 8 -4.5t7 -6.5q2 -3 4.5 -6.5t4.5 -7.5q2 -5 4 -9t4 -9q4 -7 7 -19q2 -5 3 -9t2 -9q1 -4 1 -8t2 -8q2 -5 2.5 -9.5t2.5 -9.5t3.5 -9t3.5 -9
q6 -18 9 -36q1 -5 1.5 -10t2.5 -9q1 -3 0.5 -5.5t0.5 -5.5q2 -6 2 -9q0 -5 1 -9.5t1 -9.5l1 -14q1 -3 0 -7l1 -8q0 -5 -0.5 -10.5t0.5 -10.5t1 -10t1 -10q1 -6 1 -11.5v-11.5l-1 -48q0 -12 0.5 -23.5t0.5 -23.5l-1 -23l-1 -10q0 -2 -0.5 -4.5t-0.5 -4.5l-2 -16v-4v-12v-6v-4
v-4q0 -5 -0.5 -9.5t-1.5 -9.5l-3 -11l-1 -3l-1 -3l-3 -6l-3 -5l-2 -3l-7 -13l-2 -3l-1 -2l-1 -1l-5 -8l-1 -2l-1 -2l-2 -3l-1 -2l-17 -30l-2 -3l-2 -3l-3 -5l-2 -3l-2 -3l-1 -1l-3 -4l-1 -1l-1 -1l-5 -5q-10 -8 -22 -16t-24 -12q-6 -2 -12 -3.5t-12 -3.5l-12 -2l-12 -1h-6
l-39 -1h-1h-2h-5l-2 -1l-1 -1h-4l-5 1l-5 1l-27 -2h-10l-2 1l-3 3q-2 2 -2 4q-1 2 -1 6v6l1 18v10v11v11t1 13l1 10l1 9l1 17v2v3v6l1 10l1 13v3q0 4 -0.5 7.5t-0.5 7.5v14q0 5 -2 15q-1 5 -1 15v33q0 10 1 15q2 10 2 15q0 8 1.5 15t2.5 15v2l-1 7q-1 5 -1 9v9t-0.5 8.5
t-0.5 7.5q0 5 0.5 9t0.5 9v17q0 7 -2.5 14t-0.5 15q-1 4 -0.5 7.5t0.5 7.5v19q0 5 -1 9t-1 9t-0.5 9t-0.5 9q0 20 0.5 39.5t-0.5 39.5l-2 36t1 36l2 18l2 18v9q0 2 0.5 4.5t0.5 4.5v9q0 5 -1 6t-1 5q0 8 7 8h18t18 -1l6 2q5 1 9 1.5t9 0.5zM151 653l-6 -4l-3 -2
q-2 -8 -2 -12q0 -5 0.5 -10.5t0.5 -10.5t-0.5 -9t-0.5 -9q-1 -8 -1.5 -17t-2.5 -17l1 -21q2 -14 3 -28.5t2 -28.5l2 -57q0 -11 0.5 -22.5t-0.5 -22.5q0 -6 -0.5 -12t-0.5 -12v-10.5t-1 -10.5q-1 -3 -0.5 -6t0.5 -6t-0.5 -6t-0.5 -6v-9t-1 -9t-0.5 -11t0.5 -11v-24v-23.5
t1 -22.5t0.5 -22.5t1.5 -22.5q1 -6 1 -12v-12q0 -5 -0.5 -9t-0.5 -9q0 -6 -0.5 -12t-1.5 -12l1 -2q1 -2 5 -4h16h4h7l7 1q12 1 21 6l9 6l3 3l2 3l2 2l2 3l17 28l2 3l1 2l6 10l3 4l3 4l1 2l6 10l3 4l1 2l1 3q1 2 1 9v4v5l1 9l1 16v7v3v3l1 32v4v2v2v7l-1 14l-1 7v4v2v3l-1 17
l-1 32v15t-1 14l-1 9v3v3v7v1v3v11l-1 4q-2 8 -2 13v3v4l-2 17l-1 6l-1 8l-3 16l-6 32v2v3l-1 5l-1 9l-1 7v3l-1 3l-1 5q-3 8 -5.5 15t-5.5 15q-4 8 -7.5 17t-8.5 17q-3 5 -8 11.5t-12 8.5l-4 1q-5 1 -9 1h-9h-3l-10 -1z" />
    <glyph glyph-name="e" unicode="e" horiz-adv-x="338" 
d="M300 709q1 0 3 -2q1 -1 2 -1.5t2 -2.5t1 -3.5t1 -3.5t1 -7l1 -5q1 -5 2 -8.5t3 -7.5q2 -5 2 -16q0 -8 -8 -8l-3 -1h-2h-2h-2h-7h-2q-4 -2 -8 -2.5t-8 -1.5q-5 -1 -9 -1t-9 -2t-9.5 -1t-9.5 0t-9.5 -1t-9.5 -1h-12q-2 0 -4.5 -0.5t-4.5 -0.5h-10.5t-10.5 1t-10.5 1.5
t-11.5 -0.5q-3 0 -6 -0.5t-6 -0.5l-5 1l2 -34v-11v-6v-6v-22v-45v-7l4 -24t2 -24q0 -7 -0.5 -13.5t-1.5 -13.5h6l15 -2l14 -1h3h3h1l15 1h9l11 1l10 2l9 2l3 1l1 1l4 1l1 -2l3 -3q5 1 10.5 1.5t10.5 0.5q3 0 9 -2h2q3 -1 6 -0.5t6 0.5q5 0 7 -5q0 -2 1 -2.5t1 -2.5
q2 -4 2 -8q0 -5 0.5 -8.5t1.5 -7.5l3 -17q1 -5 1 -9v-9v-3q0 -8 -9 -8q-10 0 -19.5 0.5t-20.5 0.5l-21 -1q-5 0 -9 -0.5t-9 -0.5h-21t-21 1h-15q-3 0 -6 -0.5t-6 0.5l-2 1v-11q-1 -6 -2 -11.5t-2 -11.5q-2 -12 -2 -24v-24q0 -24 -3 -48l-2 -25v-12t-1 -12q0 -3 -2 -5v-4v-3
v-2v-2l-1 -15l-1 -13l-1 -10v-2v-2v-5l1 -12l1 -9v-7v-11l13 2q5 1 9 1.5t9 0.5q8 0 15 -1t15 -2h9t9 -1l9 -2h7l5 -1l11 1q6 1 12 1.5t11 2.5l5 1h2l6 1l18 2h2q5 0 8 -3l1 -1l1 -1l1 -3l1 -4v-1l-2 -11l2 -30v-8v-1v-1l-1 -3l-2 -4l-1 -1q-4 -4 -8 -4l-2 1h-17h-13l-13 -1
q-8 0 -15.5 0.5t-15.5 1.5t-14.5 1.5t-13.5 0.5l-12 -1l-6 -1h-3h-1h-1l-25 -5h-2q-4 -2 -6 -2q-5 -2 -10.5 -5t-10.5 -2q-6 2 -12 3t-12 3l-12 4l-12 4l-10 4l-5 2l-3 1q-1 0 -3 2q-6 0 -6 6q-1 1 -1 3q-1 5 -1.5 11.5t1.5 11.5q0 4 1 7.5t1 7.5l1 19q1 9 1.5 18t0.5 18
t-0.5 18t-0.5 18q0 18 3 36q2 9 3 18t2 19l2 37q1 9 1.5 18t0.5 18v12l-1 2v5v1l2 20q1 12 -1 24t-2 24t1 24l2 24q2 23 -2 44.5t-6 44.5v12t-1 12l-3 24l-3 23q-1 5 -0.5 10.5t-0.5 10.5q-1 6 -0.5 12t0.5 12v17q0 11 0.5 21.5t3.5 21.5q1 4 5.5 6.5t9.5 2.5q7 5 14 5
q10 0 19.5 0.5t19.5 0.5h10t10 -2l14 -2q5 -1 9 -1h9l23 1h2l50 1h3l18 4l9 1h3h1h6h6z" />
    <glyph glyph-name="f" unicode="f" horiz-adv-x="327" 
d="M63 740q4 1 7 0.5t7 -0.5l13 -1q6 -1 12 -1.5t13 -0.5h28t28 -2q8 -1 14.5 -1h14.5q3 0 6 -0.5t6 -0.5h12l26 -2q7 -1 13.5 -0.5t12.5 -1.5q4 -1 6 -5t3 -8q2 -4 3 -7t3 -7q4 -10 5 -15t1 -9t2 -9q1 -3 0.5 -6.5t0.5 -6.5q2 -4 -1 -6.5t-7 -1.5q-3 1 -6 1t-6 1q-4 0 -5 1
q-3 0 -6 0.5t-6 0.5t-4.5 0.5t-3.5 0.5l-10 1q-11 2 -22.5 3t-23.5 1q-10 0 -19.5 1t-19.5 3t-19.5 1.5t-19.5 0.5v-12l-1 -16v-34l1 -36q0 -9 -0.5 -18t-0.5 -18t1 -18t1 -18t-0.5 -18t-0.5 -18t0.5 -18t0.5 -18l-1 -27h8q5 0 9 0.5t9 -0.5l20 -3h12l9 -1q5 -1 10.5 -0.5
t10.5 0.5h21h9t9 -1q6 0 9 -1q4 -1 5.5 -4.5t2.5 -7.5q3 -3 3 -8l-2 -9l2 -23v-7v-3q-2 -9 -7 -12q-1 -1 -5 -1q-8 0 -16.5 1.5t-16.5 1.5h-34q-5 0 -10.5 -0.5t-10.5 -0.5t-9 0.5t-9 0.5h-9t-9 -1l-13 -2q2 -20 2.5 -39t-1.5 -39q-2 -10 -1.5 -19t0.5 -19q0 -9 -1 -18.5
t1 -18.5q1 -5 0.5 -10.5t0.5 -10.5t1 -9v-9t-0.5 -9t-0.5 -9t-0.5 -9t-0.5 -9q0 -10 -0.5 -19t-0.5 -19l-1 -18q0 -5 1 -9t0 -9q0 -3 -3 -6q-2 -4 -6 -4q-5 0 -10.5 -0.5t-10.5 -0.5t-10.5 0.5t-10.5 -1.5q-5 -1 -9 -2t-9 -1q-7 0 -7 8q-1 1 -1 4v1q0 2 0.5 3t0.5 3t1 3
l1 39q0 10 0.5 19t0.5 19q1 11 0.5 21t-0.5 21v40v81t1 81q0 11 -0.5 22.5t1.5 22.5q1 4 1 12q0 2 0.5 4.5t0.5 4.5v10.5t1 10.5t1 10.5t1 10.5t1 10.5v10.5q0 11 -1 22.5t-1 22.5v49q0 6 0.5 12t0.5 12t-1 11.5t-2 11.5q-2 11 -1 22.5t0 22.5t-2 22.5t-1 22.5l1 3q-2 5 2 9
q2 2 3.5 2.5t3.5 2.5t5 4l6 4q1 4 6 6z" />
    <glyph glyph-name="g" unicode="g" horiz-adv-x="396" 
d="M211 720q20 -1 43 -8q9 -2 17.5 -5.5t16.5 -8.5q8 -6 14.5 -13t12.5 -15q4 -5 7 -9.5t5 -10.5l2 -8l2 -5l1 -3l1 -5v-2l4 -8q2 -5 3.5 -10t3.5 -10t3 -10.5t1 -10.5l1 -3q1 -2 2 -3.5t1 -3.5t2 -8q1 -2 0.5 -3t-0.5 -3q0 -5 -5 -7q-5 -1 -10.5 -2.5t-10.5 -3.5
q-6 -2 -12 -2t-12 -2l-11 -3q-6 -2 -9 1q-2 2 -4 8v4q-3 6 -4.5 12.5t-3.5 13.5l-4 15l-1 1l-2 3l-3 6q-2 5 -3 9t-3 9l-1 5l-1 1l-2 5l-2 2l-1 2l-2 2l-2 2q1 -1 1.5 -1t-0.5 1q-1 0 -2 1l-3 2l-2 1l-2 1q-10 4 -15 5l-8 2l-5 1q-10 0 -15 -1h-2l-3 -1l-7 -2l-2 -1l-2 -1
l-6 -3l-2 -2l-4 -4l-2 -2l-1 -1l-4 -6l-8 -13l-6 -11l-2 -4l-1 -3l-3 -10q-1 -2 -1 -3v-6l-3 -27v-3v-6l-1 -11l-1 -8q-2 -8 0 -3v-2v-11l1 -21q0 -6 -0.5 -12t-0.5 -12v-24q0 -6 -0.5 -12t-0.5 -12t-1.5 -12t-3.5 -12l-1 -4v-6v-11v-23l-1 -25l-2 -15l-1 -6v-3
q-2 -12 -1 -24t1 -24v-3l3 -12q2 -8 3 -14.5t2 -14.5l2 -16v-7v-6v-1q2 -9 4 -17.5t4 -16.5t4 -22l1 -6l2 -9q2 -8 3 -15.5t4 -15.5l3 -5l2 -2l2 -2l6 -4l6 -4l4 -2l5 -1h2l11 1l7 1q5 2 10 3.5t10 2.5h1l4 2l8 4l8 6l2 2l12 12l2 2l2 2l4 7l5 9v1l1 3v3v4v9q0 21 0.5 42
t0.5 42q0 11 0.5 21t0.5 21v17q-4 2 -5 3l-1 1l-3 2l-4 1l-4 1l-16 4l-3 1l-9 1l-12 3q-3 -2 -6 0q1 -1 0 -1t-2 1q-2 1 -5 1q-7 0 -7 7v10v9q0 6 -1 9q-1 2 -0.5 4.5t0.5 4.5v13q0 6 1 8q2 5 7 5.5t10 -1.5l3 -2l6 1q5 0 10.5 -1.5t10.5 -3.5t10.5 -2t10.5 -1q6 -1 12 -1.5
t11 -2.5l9 -2h4q9 -1 20 -5l21 -8v-3l1 -5l1 -5q3 -8 4.5 -15.5t3.5 -15.5q3 -9 3 -19v-20v-75q0 -10 0.5 -19.5t-0.5 -18.5q-2 -20 -8 -39q-3 -9 -7 -17.5t-8 -16.5q-3 -6 -7 -11.5t-9 -9.5l-6 -7l-10 -10l-5 -5l-1 -1l-2 -1l-3 -3q-5 -3 -9 -5.5t-9 -4.5t-9 -3.5t-8 -3.5
l-6 -2h-2l-2 -1l-9 -2l-10 -2t-10 -1q-11 -2 -21 0h-7l-4 1h-3l-3 1l-14 1l-9 2h-4l-2 1h-2q-5 2 -10.5 3.5t-10.5 3.5q-12 5 -20 12l-7 6l-2 1q-6 4 -9 8.5t-6 9.5q-2 5 -4 8.5t-4 8.5q-6 15 -9 32l-2 12l-2 12l-1 15v4l-1 3q-2 6 -2.5 12t-1.5 12l-2 11l-1 9
q0 -4 -0.5 -1.5t-0.5 3.5l-2 16v4v4q-1 7 -1.5 13t-0.5 13v13v6v3q-1 6 -1.5 12t-0.5 12q-1 11 -0.5 23t-0.5 23l-2 24q0 5 0.5 10.5t0.5 10.5q0 6 -0.5 12t0.5 12l3 22q0 5 2 15l3 9v17v13v10q-1 5 -0.5 10.5t0.5 10.5v49q0 12 1 24t4 24q2 11 4.5 21t6.5 21q2 6 4.5 11.5
t6.5 10.5l13 16q3 4 5.5 8t6.5 7t6.5 6.5t5.5 7.5q14 17 36 20l15 3l5 1l24 3q5 1 10.5 1.5t10.5 -0.5z" />
    <glyph glyph-name="h" unicode="h" horiz-adv-x="413" 
d="M84 709q5 -2 9 -3t8 -3l4 -2q4 0 6 -1q4 0 7 -1h9l13 -3q4 0 7 -3l1 -2v-6v-7l-1 -9v-2v-2v-2v-7v-7v-8l-1 -9l-1 -5v-3l-2 -17l-7 -62l-2 -24l1 -24v-13v-7v-3v-1v-1v-3v-3l-1 -6l-2 -12l-3 -22l-1 -12v-1v-1v-3v-6l1 -25q1 -13 1.5 -26.5t-0.5 -27.5v-7v-6v-3
q4 -2 10 -4l5 -1l15 -1l12 -1l12 -2h8h20h6h4h-2h8h19l26 2h4v3v3v1v3v6q0 6 -0.5 12.5t-1.5 13.5q-2 14 -4.5 28t-4.5 29l-2 13l-1 7l-1 7l-2 27l-1 26v25v12v6v6v13v13v25v7v7q-1 5 -1 8.5v8.5q0 4 -0.5 7t-0.5 7v15q0 8 0.5 16.5t1.5 16.5l2 14t5 13l1 1l3 3q4 2 9.5 1
t9.5 -1h25q3 0 6.5 0.5t5.5 -1.5q3 -2 5 -9v-4q2 -6 2 -9q0 -4 0.5 -7.5t0.5 -7.5q1 -10 1.5 -19.5t0.5 -19.5t-0.5 -19.5t-0.5 -19.5l1 -36v-16l2 -17q0 -5 -0.5 -9.5t0.5 -9.5l3 -16q2 -9 3 -18t1 -18t0.5 -18t1.5 -18l2 -25q1 -6 1 -12t1 -11q4 -23 4 -48l-1 -23v-9t1 -9
t2 -10.5t2 -10.5l3 -21q2 -12 2.5 -24t0.5 -24v-12t-1 -12q-1 -5 -1.5 -10t-0.5 -10v-48v-12t1 -12l2 -21q1 -5 1.5 -9.5t0.5 -9.5l-1 -4l1 -4q1 -4 1 -7.5t1 -7.5q2 -5 -1 -8q-2 -2 -4 -2t-5 -1l-11 -1h-9t-8 2h-11l-12 -1h-12l-1 1h-1l-2 1q-6 2 -7 4l-2 4l-2 21l-1 13v7
v3v3l1 43l1 85l1 45h-20q-8 1 -16 1.5t-16 1.5l-9 1l-6 1h-1l-2 1l-12 3h-3l-7 -1l-41 -8l-8 -1l1 -48l1 -24v-3v-4v-7v-14q-1 -14 -2 -25.5t-1 -22.5v-5v-2v-1v-5v-9t-1 -8l-2 -14l-1 -8q4 -8 -5 -11q-4 -2 -8 -1t-8 0l-8 -1q-7 -4 -17 -6h-4l-15 -4q-2 -1 -5 -1t-5 -2
l-4 -2t-4 -1q-4 0 -5 3q-2 4 -2 14v4q1 10 0.5 19.5t-0.5 19.5q0 19 3 39l2 17q1 5 2 9t2 9q1 9 -0.5 18t-1.5 18l1 75q0 19 0.5 37.5t1.5 37.5q1 25 0 49.5t-1 49.5l1 48v12t1 12q1 5 1.5 10.5t0.5 10.5q1 12 1 24v24t0.5 24t1.5 24q1 6 1 12t1 12l4 21q1 6 1.5 12t2.5 12
l5 23q0 4 2 7.5t4 6.5q4 9 12 6z" />
    <glyph glyph-name="i" unicode="i" horiz-adv-x="207" 
d="M65 714q5 0 10.5 -0.5t10.5 -1.5t10.5 -2t10.5 -2t9 -1t9 -1l10 -1q2 0 6 -1t5 -3l1 -4q2 -2 2 -3q0 -6 -0.5 -12t-0.5 -12t0.5 -12t0.5 -12q-1 -13 -1 -25.5v-25.5v-49q0 -12 0.5 -24t-0.5 -24l-1 -24q0 -6 -1 -11.5t-1 -11.5q-1 -12 -2.5 -24t-1.5 -24l1 -22
q0 -6 0.5 -12t-1.5 -11t-2 -11v-11v-21v-48q0 -7 -0.5 -13.5t-1.5 -13.5q1 -17 2.5 -34.5t2.5 -34.5q1 -18 1 -36t1 -36q1 -17 2 -34.5t0 -34.5v-2q2 -4 2 -8q0 -6 -1 -9l-1 -2q0 -1 -2 -3q-5 -5 -16 -5q-5 0 -9 -0.5t-9 -0.5t-9 -1t-9 -1q-5 1 -9.5 0t-8.5 1t-7.5 1.5
t-6.5 3.5l-2 4t-1 4t0.5 3t0.5 3q0 3 2 5v6v10v5v5v21q-5 4 -4 9q2 5 3.5 9t1.5 9v18q0 10 0.5 19.5t1.5 19.5q1 11 0.5 20.5t-0.5 20.5v39q0 21 0.5 42t1.5 42q1 16 3 31.5t5 31.5l-2 35q-1 12 -0.5 24t-1.5 24q-2 11 -3.5 22.5t-2.5 22.5q-2 24 -1.5 48t0.5 48
q0 11 -0.5 22.5t-1.5 22.5q0 6 -1 12l-2 12q-2 12 0 24q0 4 5 7v4q0 7 6 7z" />
    <glyph glyph-name="j" unicode="j" horiz-adv-x="293" 
d="M187 711q3 0 9 -2l13 -6l7 -3l7 -2q5 -2 11 -4t9 -7q1 0 2 -0.5t-1 -0.5q4 0 6 -3q2 -4 -1 -6.5t-5 -5.5l-1 -2q-2 -4 -2.5 -8t-1.5 -9l-1 -3v-1l-1 -7l-1 -17v-2q4 -10 4 -15q2 -16 2.5 -31.5t1.5 -31.5q1 -17 0 -33t-2 -33q-1 -16 -0.5 -31.5t2.5 -31.5q1 -12 0.5 -24
t-0.5 -24v-24q0 -5 -1 -10.5t-2 -10.5q-1 -6 -1.5 -12t-0.5 -12l1 -20v-18q0 -22 -0.5 -43.5t-0.5 -43.5q2 -11 3.5 -22.5t0.5 -22.5q-1 -6 -1.5 -12t-2.5 -12q-1 -5 -2.5 -10t-2.5 -10t-0.5 -10.5t-1.5 -10.5t-3 -10.5t-2 -10.5t-3.5 -10t-4.5 -10q-5 -11 -12 -18
q-10 -10 -21 -14l-12 -5h-1l-7 -3q-20 -4 -44 1h-12t-12 2t-11.5 4.5t-10.5 5.5t-9 6t-8 7q-7 8 -13 19q-4 8 -5 12q-2 6 -4 9q-3 5 -5.5 10t-3.5 10t-1 10.5t-2 10.5l-1 4l-3 11q-2 7 -2 13.5v13.5q-1 11 -2.5 21t0.5 21q-1 3 -1 9q1 5 0 10.5t-1 10.5q0 6 0.5 12t1.5 12
t0.5 12.5t-0.5 13.5q0 2 2 4q1 3 4 3q7 1 14 0t14 -3l25 2h8h4l2 -1l2 -1q3 -2 5 -5l1 -2v-2v-4l1 -2q1 -5 1 -10.5v-10.5q0 -6 1 -9q2 -6 2 -10v-9t-1 -9t-0.5 -10.5t0.5 -10.5v-2l2 -17v-4v-4v-7v-12v-11t1 -10q2 -11 4 -15q3 -6 7 -10l3 -3l1 -1l1 -1l3 -2h4l2 1l4 1
l10 2l7 2l4 1v1l2 6q1 6 3 15q2 8 2.5 17.5t1.5 20.5l1 11l1 6v1v1v2v1q-1 4 -1 12q0 5 -0.5 10t-0.5 10v13l-1 8v23q0 12 0.5 24t0.5 24q0 11 -0.5 22.5t-0.5 22.5q0 12 -1 24t-1 24t-0.5 24t0.5 24t1 24v24t-0.5 24t1.5 24l2 12l2 12v2v9v19v5v3v2l-4 27q-1 6 -1 12t-1 12
q-1 5 -1.5 10.5t-0.5 10.5v13.5t1 13.5v1l1 19v1v1q-1 5 2 10q1 2 1 3t1 2l5 4q6 6 11 5z" />
    <glyph glyph-name="k" unicode="k" horiz-adv-x="378" 
d="M83 700q4 0 6 -1t7 -1h33q4 0 7.5 -0.5t7.5 0.5q7 0 7 -6q1 -2 0.5 -4.5t0.5 -4.5v-4q4 -2 1 -7v-3v-8v-16q0 -10 -1 -15t-1 -9v-9q0 -10 -0.5 -19.5t-0.5 -19.5q0 -4 -1 -6q-1 -3 -1 -9q0 -5 -0.5 -9t-0.5 -9v-19l-1 -18q0 -5 -0.5 -9t-0.5 -9q0 -4 -0.5 -7.5t-0.5 -7.5
v-11l6 6q3 3 6 6.5t6 7.5q3 3 7 5.5t6 6.5q2 5 5 9t6 9q11 15 22 34q3 5 5.5 9.5t5.5 9.5l12 17l12 18l9 12q4 4 2 3q4 6 7 9l3 3q0 1 1 2t1 0l3 4l3 4l5 7l4 8l4 8q2 3 6 7q2 4 5 7.5t5 6.5q3 4 6.5 7.5t8.5 4.5h1q5 3 10 0t8 -8q2 -2 3 -5t3 -5t3.5 -4t3.5 -4q3 -4 7 -7.5
t6 -8.5q1 -1 1 -4q4 -4 1 -8l-13 -17q-3 -5 -6 -9.5t-7 -9.5l-17 -19l-2 -3l-4 -6l-6 -9l-3 -5l-2 -2l-1 -1q-6 -9 -13 -16l-5 -5l-3 -4q-3 -3 -4 -7q-2 -4 -4.5 -6.5t-4.5 -6.5l-7 -15q-7 -15 -17 -32l-5 -8q1 -8 2 -15t3 -14l4 -16l2 -7l1 -4q3 -4 7 -7t6 -8q3 -5 3.5 -11
t2.5 -11t3.5 -10.5t3.5 -10.5l18 -45q5 -11 7 -23l4 -24t4.5 -24t5.5 -23q3 -12 6.5 -23.5t6.5 -23.5q2 -6 2.5 -12t2.5 -12l6 -21q3 -11 5.5 -22.5t6.5 -22.5t6.5 -22t3.5 -22v-2v-2v-2q1 -3 0.5 -6.5t-0.5 -6.5q0 -5 -6 -5q-7 0 -13.5 -1.5t-13.5 -0.5q-4 0 -7.5 -0.5
t-7.5 -0.5q-5 0 -15 2l-2 1h-1l-1 1l-1 1l-1 1q-5 3 -6 9l-2 7l-3 15q-2 8 -5 16.5t-5 17.5q-3 11 -6 21.5t-7 21.5q-2 5 -3.5 10.5t-3.5 10.5t-4 9.5t-4 9.5t-2.5 10.5t-2.5 10.5t-3.5 10t-3.5 10q-3 11 -6 22.5t-5 22.5l-6 23q-2 5 -2.5 11t-2.5 11q-4 11 -9.5 19.5
t-10.5 18.5t-6.5 20t-5.5 20q-2 3 -3 5.5t-2 5.5q-1 2 -1 4.5t-1 4.5l-1 2l-4 -7l-1 -2l-1 -2l-2 -5l-2 -4l-3 -4q-3 -3 -6 -3q-2 0 -6 2l-8 5v-14v-23q0 -5 0.5 -10.5t-0.5 -10.5l-1 -8v-5v-3v-2v-2v-8l-1 -13l-1 -10v-7v-3q1 -6 1 -11.5v-11.5v-23t-1 -23q0 -6 -0.5 -12
t-0.5 -12q0 -5 0.5 -10.5t-0.5 -10.5q-1 -11 -1 -22.5t-3 -22.5l-3 -21v-5v-12v-3v-5v-2q3 -8 3 -15q0 -4 0.5 -8t-0.5 -8q-3 -8 -12 -6q-15 1 -33 -2q-9 -3 -18 -3l-4 1l-2 1q-6 0 -11 2.5t-5 9.5q0 5 1.5 9t1.5 9v20q0 10 -0.5 19.5t0.5 19.5q1 5 1 9t1 9t0.5 9t0.5 9
q1 10 1 19.5v19.5t-0.5 18.5t-0.5 19.5v40v20v10t1 10q1 3 1 9q0 2 -0.5 4.5t0.5 4.5q2 5 1.5 9t0.5 9q2 11 2.5 21t0.5 21q-1 12 -1 24v24l1 48v24t1 24l2 24l2 24l2 50q1 12 1 24t1 24q1 5 1.5 10.5t0.5 10.5q0 11 2 16v3q0 3 -0.5 6t-0.5 6q0 8 7 8z" />
    <glyph glyph-name="l" unicode="l" horiz-adv-x="290" 
d="M122 694q6 2 8 -4q3 -6 3 -14q1 -3 1 -10v-3q1 -1 1 -3q0 -5 -1 -9t-1 -9l1 -18v-18t2 -17q2 -12 2.5 -24t0.5 -24v-45q0 -11 0.5 -22.5t-0.5 -22.5q-1 -6 -1 -12v-12q0 -3 -0.5 -6t-0.5 -6q0 -7 -1 -10q0 -2 -0.5 -3.5t-0.5 -3.5v-5v-11v-20q0 -6 -0.5 -12t-1.5 -12
q0 -2 -0.5 -4.5t-0.5 -4.5v-12q0 -4 -2 -12q2 -6 2 -9l-1 -16q0 -8 -1 -15t-1 -15v-33l-1 -17q0 -4 -0.5 -7.5t-0.5 -7.5q-2 -32 0 -63q0 -8 0.5 -15t0.5 -15v-5v-11h2q2 0 3.5 1.5t3.5 1.5l10 -1q11 -1 21.5 -1t21.5 -3q5 -2 10.5 -2t10.5 -1t10.5 -2t10.5 -3t10 -3.5
t10 -3.5q4 -2 7.5 -3t5.5 -5q4 -2 5 -6l1 -4v-1v-3v-2q2 -2 2 -4q0 -5 -1 -9.5t-3 -9.5l-2 -6q0 -2 -2 -6l-2 -6l-5 -15q-3 -8 -13 -6q-4 0 -6 1l-4 2l-4 2h-1t-2 1l-4 1l-2 1h-3l-3 1h-3l-16 2q-5 1 -10 1t-10 2l-2 1h-2l-3 1l-3 1l-2 1h-4l-27 3l-10 2l-4 1h1l-4 1h-10
l-2 1l-27 -2h-11l-5 2q-10 0 -13 9q-1 3 -1 9l-2 9q-2 5 -2 10.5v11.5v3l-1 7q-1 7 -1.5 14t-0.5 14v24.5t2 24.5q2 8 3 15t1 15v29v26q0 11 2 20.5t4 20.5q2 12 1.5 24t-0.5 24v46v24t2 24q3 12 3 24v23q0 14 -1.5 27t-1.5 27v25t1 25q2 24 0 46l-1 13q-2 17 0 34l-1 2
q0 2 -0.5 4t-0.5 4v2q0 4 1 6l-1 5v4q-3 4 -1.5 8.5t6.5 4.5h4q3 2 7 2h7q4 0 7.5 0.5t7.5 0.5h16t16 3z" />
    <glyph glyph-name="m" unicode="m" horiz-adv-x="540" 
d="M486 686q7 0 7 -7v-10q0 -4 -0.5 -7t-1.5 -7l-2 -8t-1 -8q1 -18 0 -36q-1 -10 -0.5 -19.5t0.5 -19.5v-18q0 -8 -1 -12v-5l1 -15q0 -10 1 -15q2 -10 2 -15q0 -8 0.5 -16.5t-0.5 -16.5l-2 -16t0 -16v-16l1 -13q0 -8 0.5 -15t-0.5 -15t-1 -16.5v-16.5v-12.5t-1 -12.5l3 -42
q1 -11 1.5 -22.5t0.5 -22.5t-1 -21t-2 -21t-1 -22t-2 -22q-1 -5 -1 -10.5v-10.5t-0.5 -10.5t-0.5 -10.5v-24q0 -5 -0.5 -10.5t-1.5 -10.5l-2 -10v-9q-1 -6 -1 -12.5t-2 -11.5q-3 -6 -11 -8.5t-14 -2.5l-6 2h-6l-4 1h-2q-13 -4 -21 3q-3 2 -3 8l-1 8q0 5 -0.5 11t1.5 11
t1.5 10.5t-0.5 10.5t0.5 9t0.5 9q1 22 0.5 43.5t1.5 43.5q1 11 1.5 21t0.5 21q0 5 -0.5 10.5t-1.5 10.5t-1 10.5v10.5q0 6 -0.5 12t0.5 12l2 23l3 35v13v7v8q0 8 0.5 14.5t1.5 13.5l1 8q-8 -24 -17.5 -48.5t-20.5 -48.5l-1 -3l-2 -5l-1 -2l-3 -9q-2 -5 -3 -10t-3 -10l-4 -14
q0 -2 -2 -6l-1 -1l-1 -1l-1 -2l-2 -4q-2 -5 -3.5 -9t-3.5 -9l-2 -7v-1l-1 -2l-1 -3l-7 -18l-1 -3l-1 -3q-2 -11 -9 -24l-13 -24q-4 -8 -9 -9q-3 -1 -6 0t-6 0q-4 -1 -12 -1q-3 0 -5.5 -1t-5.5 -1h-2q-5 -1 -10.5 -0.5t-8.5 5.5q-3 4 -3 12v7t-2 6q-1 1 -1 3l-1 1l-1 4l-4 13
l-2 6l-1 3l-1 3l-1 4q-4 8 -7.5 16.5t-5.5 16.5q-2 6 -4 11.5t-4 11.5q-2 5 -3.5 10.5t-3.5 10.5l-5 11l-3 9l-8 20q-2 5 -4 10.5t-4 10.5q-1 2 -1 4.5t-1 4.5t-1.5 4t-1.5 4q-4 8 -5 12l-2 9q-2 5 -3 9t-3 9q-2 4 -4 12q-1 2 -2 4.5t-2 4.5q-3 9 -8 20q-3 8 -3.5 16
t-2.5 16v-1q-1 -5 -1 -15q0 -5 -0.5 -9t-0.5 -9l-3 -36q-2 -24 -1 -48t1 -48q0 -12 -1 -23.5t-1 -23.5q0 -6 0.5 -12t0.5 -12q0 -3 -0.5 -6t-0.5 -6v-10q0 -4 -2 -12q-1 -4 -1 -12q0 -5 -0.5 -10.5t-0.5 -11.5v-23t-2 -23t-2 -23v-23q0 -8 -1 -12q-2 -8 -2 -12v-23
q0 -2 -1 -3q1 -5 -2 -8q-2 -3 -5.5 -3h-6.5h-16q-2 0 -4.5 -0.5t-4.5 0.5l-16 1h-13q-6 2 -5 8v9l-1 4v7q-1 5 -0.5 9t0.5 9v35q0 5 0.5 9t0.5 9v18q0 8 1 16.5t2 16.5v9t1 9q2 10 2 15q0 8 -0.5 15t-1.5 15q-1 9 -1 18v18q0 8 0.5 16.5t2.5 16.5q2 5 2 10.5t1 10.5t1 10.5
v10.5q0 12 -0.5 24t-0.5 24t0.5 24t0.5 24l1 24v10.5t1 10.5q1 6 0.5 11.5t0.5 11.5l1 21v24t1 24q2 23 2 45t1 45q-2 2 -2 4l1 9q0 6 2 8q3 3 6.5 3t7.5 1t7.5 0.5t7.5 0.5t7.5 0.5t7.5 0.5q5 1 9 1h9q6 0 8 -8q1 -3 1 -6.5t1 -6.5l3 1q4 2 6 2q4 0 5 -1q4 -2 5 -4
q1 -3 1 -7q4 -6 5 -10q2 -10 2 -15l1 -7v-7q1 -5 1.5 -10t0.5 -10q4 -10 5 -15q2 -6 2.5 -12.5t2.5 -12.5t3.5 -11.5t3.5 -11.5t3.5 -12t3.5 -12t5 -11.5t5 -11.5q2 -5 4.5 -10.5t4.5 -11.5l7 -22l6 -18t7 -18q4 -8 6 -13t2.5 -9t2.5 -9l6 -19l15 -45l3 -7l1 -2l2 -4
q4 -6 5 -10q2 -5 2 -10.5t1 -10.5v3l1 10q2 5 3.5 10.5t3.5 10.5t5 10t5 11q2 5 4 9t4 9l1 2l1 4l2 7l6 15q2 5 4.5 10.5t4.5 10.5t3.5 10t3.5 10t2.5 11t2.5 11t4 10.5t4 10.5t3.5 10.5t4.5 10.5q2 5 3.5 9.5t3.5 9.5q2 6 4 11.5t4 11.5l6 21q2 6 3.5 11.5t3.5 11.5
q2 5 4 10.5t4 10.5l4 12l4 12q2 5 4 10.5t3 10.5q0 3 5 5v8v2v2v4v8q1 8 1.5 14.5t0.5 12.5v10v5l1 1l2 2l1 1q4 3 8 5t9 4t9.5 3.5t9.5 3.5l20 5l8 2t7 1z" />
    <glyph glyph-name="n" unicode="n" horiz-adv-x="450" 
d="M353 705q5 0 9 -0.5t9 -0.5t9 -0.5t9 -1.5t15 -1q7 0 7 -7q0 -3 -2 -9q-1 -2 -1 -6q0 -6 -1 -8l-1 -12v-9.5t-1 -9.5l-7 -39q-2 -10 -2.5 -19.5t-2.5 -19.5q-1 -5 -2 -9t-1 -9v-9t-1 -9q-2 -8 -1.5 -17t-1.5 -17l-2 -10l-2 -10l-1 -8q0 -2 -0.5 -4.5t-0.5 -4.5
q0 -6 -3 -12q-1 -2 -1 -8q-1 -5 -1 -9v-9t-1 -9t-2 -9t-2 -8.5t-3 -8.5q-1 -5 -1 -9v-9q0 -2 -0.5 -5t-0.5 -5l-1 -9v-10.5t-1 -10.5l-2 -23q-1 -5 -2 -10.5t-1 -10.5v-12.5t-1 -12.5l1 -20v-20v-9.5t-2 -10.5q-2 -9 -1 -18t0 -18q-1 -10 -1 -19.5t-1 -19.5q0 -4 0.5 -7.5
t0.5 -7.5v-12q0 -6 -0.5 -12t-0.5 -12q0 -4 -1 -5q1 -10 1.5 -20.5t0.5 -21.5v-7l-1 -3v-7q0 -11 -9 -12l-7 -1l-9 -1l-16 -1l-12 1h-5q-4 -1 -12 -1l-3 1q-7 0 -10 4q-3 6 -3 12q-3 4 -3 9q0 2 -1 4l-2 4l-3 9q-3 8 -6 15t-7 15q-5 8 -8 17l-6 18q-4 11 -8 21t-8 21
t-6.5 22t-7.5 22q-2 5 -4.5 11t-4.5 12q-2 5 -2.5 10.5t-2.5 10.5q-2 6 -4 11.5t-4 11.5q-2 5 -4.5 10t-4.5 10l-14 43l-8 23q-2 5 -4 11t-4 11q-2 6 -3 12l-2 12t-1.5 11.5t-1.5 10.5t-2 8.5t-3 8.5v-5v-37l2 -18l3 -48q1 -6 1.5 -12t0.5 -12q0 -5 -0.5 -10.5t-0.5 -10.5
l-1 -23v-21q0 -6 -0.5 -12t-0.5 -12l1 -21v-12t-1 -12l-1 -11q0 -2 0.5 -5t0.5 -5q1 -20 -2 -45q-1 -6 -1.5 -11.5t-0.5 -11.5q0 -5 -0.5 -10.5t-0.5 -10.5v-11t-2 -11q0 -2 0.5 -3.5t0.5 -3.5l-1 -9q0 -2 -2 -6q0 -4 -5 -6q-4 -2 -7.5 -1.5t-7.5 0.5l-17 1q-6 0 -12 -0.5
t-12 -0.5h-15q-6 2 -7 5q-1 2 0 5t1 5l1 7q0 8 2.5 16.5t4.5 16.5t2 15.5v15.5v16.5t1 16.5t1 16.5v16.5q0 17 1 34.5t0 34.5q0 8 1 16.5t1 16.5l1 16q0 6 1 9q-1 7 -0.5 13.5t-1.5 13.5q-2 10 -0.5 19.5t1.5 19.5q0 3 0.5 6t0.5 6v11q1 5 1 10.5t1 10.5q1 6 1 12t1 12
q1 5 1 10.5v10.5l-2 41q-1 12 -1.5 23.5t-2.5 23.5q-3 23 -4 46.5t-2 46.5q-1 12 -1 24v24q0 4 -0.5 8t0.5 8v3v2v8t2 8q2 3 5.5 3.5t6.5 0.5l16 1l17 1q4 0 7.5 1t7.5 0q5 -1 6 -5.5t2 -7.5q2 -5 0 -10v-3l1 -8l3 -1q5 5 8 -2q1 -2 1 -4.5t1 -4.5l4 -10l9 -21
q2 -5 3.5 -10.5t3.5 -10.5l3 -8l1 -3l3 -9q2 -6 3.5 -12t3.5 -12l7 -20q4 -11 7 -21.5t8 -21.5q8 -21 15 -42.5t12 -44.5q2 -11 4 -22.5t5 -22.5t7.5 -21.5t7.5 -21.5q2 -8 4.5 -15t5.5 -15l8 -21l4 -14l1 -5l1 -3q4 -8 5 -12v-3l4 -14q4 -12 7 -23.5t7 -22.5l3 -9v2v2v2
l2 21l2 20v7q0 8 -0.5 15.5t1.5 15.5l2 14q2 10 2 15v15t1 15q2 15 1.5 30.5t2.5 30.5q1 4 1.5 7.5t0.5 8.5q0 4 0.5 7.5t0.5 7.5q0 5 0.5 9.5t1.5 9.5q-1 5 -1 9v8l1 16q1 4 0.5 7.5t0.5 7.5l3 18q1 4 2 7.5t1 8.5t0.5 9t0.5 9q0 8 1 16.5t3 16.5q2 9 1.5 18t0.5 18
q1 5 1.5 9t0.5 9t0.5 8.5t1.5 8.5q2 9 3.5 18t3.5 18q1 5 1 9t1 9l1 8q1 2 2 4.5t0 4.5v2q-1 3 1 6t6 2t8.5 -0.5t8.5 0.5h-10z" />
    <glyph glyph-name="o" unicode="o" horiz-adv-x="390" 
d="M187 697h21t20 -5l3 -2h10q24 -3 39 -17q6 -6 10.5 -13t9.5 -15t9 -15.5t8 -15.5q5 -10 8.5 -20t7.5 -21q4 -10 6 -20t4 -21q2 -12 2.5 -24t2.5 -24v-1v-1l1 -5l2 -10q1 -6 1.5 -12.5t0.5 -13.5q1 -11 1 -22.5v-22.5v-27v-21l1 -32v-6q1 -25 1 -49.5v-49.5
q0 -5 -0.5 -10.5t-0.5 -10.5v-22v-22.5t-2 -22.5q-1 -6 -1.5 -12t-2.5 -12q-2 -5 -3 -10.5t-2 -10.5q-1 -3 -1 -6t-1 -6q-2 -4 -2 -6q-1 -5 -3.5 -9.5t-5.5 -9.5q-6 -9 -14 -17l-1 -1q-6 -8 -15 -15q-7 -7 -14 -10l-4 -2l-3 -1q-9 -5 -22 -10h-1l-4 -2l-14 -6q-10 -5 -26 -5
q-15 0 -30 3l-17 2q-1 1 -4 1t2 0q-12 2 -24.5 4.5t-22.5 9.5l-7 6q-2 1 -6 5l-7.5 7.5t-6.5 8.5q-6 8 -11.5 16.5t-8.5 18.5q-2 5 -4 10.5t-4 10.5t-3 10.5t-2 11.5q-1 5 -1 10.5t-1 10.5t-2.5 9.5t-1.5 9.5q0 3 -0.5 6t-0.5 6v12v11t-1 11q0 7 -1 10l-2 10q-1 6 -0.5 12
t0.5 12v24t-1 24q0 6 -1 12t-1 12v24v26q0 5 0.5 10.5t0.5 10.5q1 11 0.5 22.5t1.5 22.5q0 8 1 11l2 5l2 5v6v6.5t1 6.5l1 13q0 10 1 15l2 14q2 8 2 12q0 8 1.5 15t2.5 15t2 15t3 15q1 5 1.5 9t2.5 8l5 14l5 13q1 3 2.5 5.5t2.5 5.5q5 20 15 34q13 18 34 32q13 8 23 12
q9 4 23 4zM187 611l-9 -6l-4 -3l-2 -2l-11 -10l-1 -2l-1 -2l-7 -21l-4 -12t-3 -12l-4 -22l-5 -24l-2 -11v-3v-3q-2 -12 -2.5 -24t-1.5 -24l-3 -45q-2 -24 -2 -48.5t2 -48.5t1.5 -48t-0.5 -48v-24t2 -24l1 -7v-3l1 -9l4 -22l6 -21l1 -4l4 -7l3 -4l4 -4l7 -7l12 -10l4 -2h2h5
l11 1l5 1q12 1 24 6l10 4l2 1l2 2l3 3l6 5l7 7l2 2q5 7 8 14l1 3v1l3 8l2 9v2v4q2 11 2.5 21t1.5 21l3 42l2 17l-1 17q0 11 0.5 22.5t0.5 22.5v12t-1 12v4v1q-2 10 -2 15q0 12 -0.5 24t-0.5 24v24t-1 24l-1 14v4v3l-2 16v1l-1 4q-2 8 -3.5 16.5t-3.5 16.5t-4.5 14.5
t-3.5 14.5t-1.5 15t-2.5 15q-2 10 -4 15q-1 3 -1 6t-1 6l-1 5l-7 12l-6 9l-6 4l-3 2h-1l-2 1l-6 1h-1h-6h-10h-2z" />
    <glyph glyph-name="p" unicode="p" horiz-adv-x="339" 
d="M133 710h9.5t9.5 -2q8 2 12 1q6 -2 9 -2q6 0 8 -1q5 -2 9 -2.5t9 -2.5q11 -3 20.5 -6.5t18.5 -10.5q18 -13 29 -28q5 -8 9 -16.5t7 -17.5q4 -11 6 -22.5t5 -22.5t5.5 -22.5t4.5 -23.5l1 -13q0 -6 1 -9q1 -5 1 -10.5t1 -10.5l2 -12l2 -12q1 -5 1.5 -10.5t0.5 -10.5
q-1 -11 0 -22.5t1 -22.5v-10v-17v-8t-1 -8l-3 -12q0 -10 -2 -15l-3 -7q-1 -7 -5 -14q-7 -12 -15 -19l-11 -12q-8 -8 -18 -12q-5 -2 -9.5 -4.5t-9.5 -4.5t-10.5 -2.5t-10.5 -2.5t-10.5 -3.5t-10.5 -1.5l-18 -2h-9t-9 -1t-10.5 -0.5t-10.5 -0.5h-3l-1 -9v-15l1 -31
q0 -8 -0.5 -15t-0.5 -15v-33q0 -8 -0.5 -15t-1.5 -15t-1 -16.5v-16.5t-0.5 -16.5t0.5 -16.5q0 -2 0.5 -5t0.5 -5v-6q2 -2 2 -5v-2q1 -2 1 -6l1 -7q0 -5 -4 -7t-8 0l-8 6q-5 0 -15 2q-5 1 -15 1l-17 1q-3 0 -6.5 0.5t-6.5 0.5q-2 0 -2 2q-8 2 -6 10q2 6 2 11.5v11.5
q-2 4 -2 6q0 9 0.5 18t0.5 18t-0.5 18t1.5 18q1 5 1 15q0 5 0.5 9t0.5 9l1 37q0 10 -1 19t-1 18q0 10 -0.5 19.5t-0.5 19.5v19.5t2 19.5t2 15v15q-1 11 -0.5 22.5t0.5 22.5q0 22 -3 45q-2 11 -2 22.5v22.5q0 6 0.5 12t-0.5 12q-1 5 -1.5 10.5t-0.5 10.5v11.5t1 10.5t2 10.5
t1 10.5l1 25v10.5t-1 10.5q-2 10 0 21q1 10 0 21q-1 8 -2 16.5t-1 16.5q-3 5 0 10q0 1 2 3l3 3l4 3q1 1 3 5q2 3 2 6.5t2 6.5q3 4 13 6q5 1 11 0l1 1q5 2 8.5 2h8.5t9 0.5t9 0.5zM157 627q-3 -1 -6.5 -1t-6.5 -2l-7 -4l1 -19q0 -11 -0.5 -22.5t-1.5 -22.5l-3 -31v-21v-12
t-1 -13v-3v-2v-2l-1 -6v-3q0 -23 2 -46t2 -46v-41v-9q5 -5 10 -8t11 -3q10 0 15 1q9 2 14 1h2h2l3 1q8 6 13 7q10 3 20 11q4 4 7 10q4 8 5 12q3 13 3 27v25.5t-2 24.5q-1 4 -1 12t-1 12q-1 3 -1 6.5t-1 7.5t-1 12q-1 4 -1 12l-2 14q-1 4 -1 7.5t-1 7.5q-2 8 -3.5 16.5
t-2.5 16.5t-2 14.5t-3 13.5t-5 14t-8 12l-9 8q-2 1 -4.5 2t-4.5 2q-5 2 -10.5 3t-10.5 1z" />
    <glyph glyph-name="q" unicode="q" horiz-adv-x="416" 
d="M184 716q7 0 10 -1l10 -2q3 -1 6 -1t5 -1q3 -1 6 -1t6 -1l3 -1l5 -1l21 -6q5 -2 9.5 -3.5t8.5 -4.5q8 -7 16.5 -13.5t13.5 -16.5q2 -5 4.5 -9t4.5 -8l6 -9q4 -2 5.5 -7t3.5 -9q3 -6 5 -12t5 -12q2 -4 2.5 -7.5t2.5 -7.5t3 -7t2 -7q2 -7 4 -13t4 -13q2 -8 3.5 -15t1.5 -15
q0 -3 0.5 -6t0.5 -6v-15q0 -8 0.5 -15t1.5 -15q0 -4 0.5 -7.5t0.5 -7.5v-14v-2v-3q-1 -2 -0.5 -3.5t0.5 -3.5l1 -6q1 -4 0.5 -7.5t-0.5 -7.5q-1 -8 -0.5 -15t0.5 -15l1 -35v-15t2 -15t2 -13v-11q0 -5 0.5 -10.5t0.5 -10.5v-22.5t-1 -22.5l-3 -21q-1 -5 -1 -10.5t-1 -10.5
q-2 -11 -3 -21.5t-3 -21.5q-2 -8 -2 -12v-12q0 -13 -4 -22q-2 -5 -3.5 -11t-3.5 -11q-5 -12 -11 -18q-4 -4 -6.5 -8.5t-7.5 -8.5q-8 -7 -17 -11l-18 -8l2 -5q1 -2 0.5 -5t0.5 -6v-7l1 -7l1 -10l1 -4l1 -6l1 -3l1 -2l2 -7l2 -9l1 -6q2 -4 4 -12q2 -6 2 -14q0 -6 -4.5 -8.5
t-8.5 -0.5h-3q-5 -1 -9.5 -1h-9.5q-5 -1 -9 0t-9 1q-8 0 -19 -2t-16 6q-3 4 -3 9q0 3 -2 9q-1 5 -1 10t-1 10q-2 9 -2 19t-3 19q-2 5 -3 10.5t-2 10.5v2l-11 1q-5 0 -10.5 1.5t-10.5 2.5q-11 2 -22 3.5t-22 4.5t-21.5 7.5t-18.5 13.5q-7 8 -11.5 17.5t-8.5 19.5l-8 22
q-2 5 -2.5 9t-1.5 9q-2 11 -6.5 21t-3.5 21q-2 14 -1.5 27.5t1.5 27.5l1 36v9t-1 9q0 5 -0.5 9t-0.5 9t-0.5 9t-0.5 9v15q-1 8 -1 16.5t-1 16.5q0 5 -0.5 9t-0.5 9v17v18t1 18l2 12t1 12q0 5 0.5 10.5t0.5 10.5q1 11 2.5 22.5t2.5 22.5q0 22 3 45l2 10t1 10q0 2 1 4.5t1 4.5
l2 11q2 11 4 22.5t4 22.5t8.5 19.5t13.5 16.5q7 9 15.5 15t17.5 12q5 4 11 5l5 2l6 3l4 2l4 2q5 2 10.5 3.5t10.5 3.5q7 3 16 3h-5zM184 646l-6 -2l-12 -6q-2 -1 -3 -2t-3 -1l-3 -1q-2 -2 -3.5 -4t-3.5 -4t-3 -4.5t-3 -5.5l-3 -6v-1q0 -1 -1 -3q0 -5 -1 -10.5t-2 -10.5
l-3 -20q-2 -11 -3.5 -21t-1.5 -21q0 -6 -1.5 -11.5t-1.5 -11.5q0 -5 -1 -10t-1 -10q0 -10 -1 -15q0 -4 -2 -12l-3 -22l-2 -13q0 -6 -1 -9q-1 -5 -1 -10.5v-10.5v-10.5t1 -10.5q2 -8 2 -12v-9q1 -6 1 -12v-12v-23l1 -25q0 -9 -1 -13l1 -5q2 -8 2 -15.5v-15.5q0 -9 -0.5 -18
t0.5 -18q0 -4 0.5 -7.5t0.5 -7.5q0 -10 1 -15t0.5 -9t1.5 -8t1 -8.5t0 -6.5q1 -4 1 -7.5t1 -7.5l2 -16q0 -4 1 -7l2 -5q2 -2 5 -4t5 -4l6 -5l2 -1l4 -2l8 -3l13 -5l5 -2l2 -1l-1 3q-1 3 -1 10l-2 15l-1 2l-3 6q-2 3 -0.5 7t5.5 6q3 1 6 0.5t6 -0.5l6 1l6 2q4 1 7 2t7 2
q5 1 9 2.5t9 2.5l8 2l3 1q4 2 8 0t4 -7q0 -11 1 -20.5t3 -19.5l2 -9l1 1l1 1l2 2l1 2l5 6l3 6l1 3l1 4l1 4l1 10l2 12q1 7 2 12.5t3 10.5l2 9l1 5v5v6v12l1 12v3v1v4l1 22l1 10v9l-1 20v9l-1 2q-3 10 -3 20t-2 20q-1 5 -0.5 10.5t-0.5 10.5t-1 10.5v10.5v44q0 5 -0.5 10.5
t-0.5 11.5l1 22q0 11 -2 22.5t-4 22.5l-4 23q-1 5 -2 9.5t-3 9.5l-9 21q-2 5 -3 10.5t-3 10.5q-3 10 -6.5 19.5t-8.5 18.5l-6 11l-6 6q-3 4 -6 7l-6 6q-8 2 -12 4q-3 2 -6 3.5t-7 2.5l-2 1h-1h-2h-3z" />
    <glyph glyph-name="r" unicode="r" horiz-adv-x="373" 
d="M123 715h7q5 0 7 -2q3 -3 3 -8h32q16 -2 33 -6q12 -3 24 -9q19 -3 32 -10q20 -11 32 -27q14 -17 24 -40q4 -10 6 -20t4 -21l4 -23q1 -3 1 -6t1 -6t1.5 -5.5t0.5 -5.5t0.5 -5.5t1.5 -5.5l1 -12q1 -5 1.5 -10.5t0.5 -10.5q0 -3 -0.5 -6t-0.5 -6v-10l-1 -21q0 -6 -0.5 -12
t-1.5 -12q-1 -5 -1.5 -10.5t-2.5 -10.5q-3 -11 -6.5 -22t-10.5 -20q-9 -12 -16 -17l-1 -1l-4 -4l-8 -7l-19 -14q-5 -3 -9 -6t-9 -5l-4 -1q5 -3 8 -6.5t7 -7.5q2 -2 4 -4.5t4 -4.5l4 -4l4 -4q3 -5 6.5 -8.5t6.5 -8.5q2 -5 4 -9.5t4 -9.5q4 -21 12 -42q2 -5 3.5 -10.5
t3.5 -10.5t2.5 -10.5t1.5 -10.5l4 -24l4 -24l5 -25l4 -23l5 -22q2 -8 2 -12v-2q1 -5 1.5 -9t-1.5 -9q-4 -13 -17 -11h-3q-4 0 -12 -2q-5 -1 -11 -1t-11 -2q-3 -1 -6 -1t-6 -2q-3 -1 -5.5 -1.5t-5.5 0.5q-5 2 -6.5 7t-1.5 9v2l1 8q-1 -2 -0.5 -2t0.5 1v3v4v9q0 5 -0.5 8.5
t-0.5 8.5v3q-3 10 -5.5 19.5t-3.5 20.5q-1 10 -3.5 20t-5.5 20q-4 10 -6.5 20.5t-4.5 21.5t-4 21t-6 21q-3 8 -6.5 16t-8.5 16q-4 7 -12 13q-4 3 -7 6t-7 5t-17.5 2.5t-18.5 -0.5h-8q-1 0 -2 -1v-5v-8l-1 -19q0 -5 0.5 -9t0.5 -9l1 -19l1 -40q1 -11 0.5 -21t0.5 -21l2 -37
v-9v-2.5t-1 1.5q1 -5 1.5 -8.5t0.5 -8.5t0.5 -9.5t1.5 -9.5q1 -3 1 -9v-7q0 -8 -1 -11q1 -4 0 -8q-2 -5 -7 -5h-9t-9 -1q-5 -2 -9 -1.5t-9 0.5h-22q-5 0 -9 -0.5t-9 -0.5l-2 1q-6 0 -6 6v2v3q0 3 1 7q0 5 0.5 10.5t0.5 10.5t-0.5 10t-1.5 10t-1.5 10.5t-0.5 10.5t-0.5 9
t-0.5 9q0 9 0.5 18t0.5 18q0 10 1.5 19.5t1.5 19.5q0 5 1 10.5t1 10.5t1 10.5t1 10.5l1 20v10l-1 7q-1 5 -1 10.5t-1 10.5t-1 10.5v10.5v43v12t1 12l2 12l2 12q1 12 0 24t-1 24v48q0 11 1 22.5t2 22.5l1 24l2 12l2 12q2 24 0 49q-1 11 -1.5 22.5t0.5 22.5l1 23q0 8 1 12
q-1 1 -1 3v3l2 7q1 2 0.5 3t0.5 3q3 3 11 5t17 2h17zM150 627q1 -5 0.5 -10.5t-0.5 -10.5q0 -10 -2 -19t-4 -19q-1 -5 -1 -10.5t-1 -10.5l-2 -20q-1 -5 -1.5 -10t-0.5 -10v-10.5t-1 -10.5t-1 -9.5t-1 -9.5t-0.5 -9.5t0.5 -9.5v-42v-42v-9.5t1 -9.5l2 -10h2l7 -2l30 2l7 1
l10 7q6 5 11.5 9.5t11.5 9.5l14 9q3 2 5.5 5t4.5 6t5 5t5 4l2 2l3 13q1 2 0.5 5t-0.5 5t-0.5 4.5t-0.5 4.5l2 20q2 11 2 21.5v21.5v21t-2 21q-3 21 -11 42q-3 8 -7.5 15.5t-10.5 13.5q-11 12 -30 17q-8 2 -26.5 4t-26.5 4z" />
    <glyph glyph-name="s" unicode="s" horiz-adv-x="340" 
d="M171 717q21 -1 38 -11.5t31 -25.5l12 -12l8 -10l2 -2l1 -2l4 -5q2 -3 5 -6.5t5 -8.5q2 -3 4 -9l1 -3l1 -3l2 -6l2 -6l3 -11l3 -12l2 -11q2 -6 3 -11.5t2 -11.5l2 -8q0 2 0.5 0.5t0.5 -2.5q3 -5 0 -10q0 -2 -1 -3q-2 -2 -3 -2t-3 -1l-6 -3l-9 -4l-6 -3l-8 -4l-9 -3
q-4 -2 -8 -3.5t-8 -1.5q-1 0 -3 2l-3 3l-1 3l-4 8l-1 2l-1 6q0 4 -1 7.5t-1 7.5t-1 7.5t-2 7.5t-1.5 7.5t-0.5 8.5t-2 13q-1 4 -1 7.5t-2 6.5q-8 15 -19 23l-14 10q-2 2 -4.5 4t-5.5 3q-7 2 -14.5 2t-15.5 -1h-1q-5 -3 -8 -8l-6 -8q-1 -1 -2.5 -2t-1.5 -2q0 -2 -2 -4l-1 -1
q-2 -2 -4 -9l-2 -13q-2 -8 -1.5 -16.5t0.5 -16.5v-16.5t1 -16.5t2 -16.5t3 -16.5q5 -22 12 -43.5t20 -41.5l12 -18l9 -17q9 -18 22 -34q8 -9 15 -18t13 -20l3 -5q3 -2 7 -8q6 -8 9 -16q4 -10 7.5 -19.5t8.5 -18.5q5 -11 8.5 -22t7.5 -22l6 -21q2 -6 2 -11q4 -11 5 -23t3 -24
q2 -11 1.5 -22.5t-0.5 -22.5t-6 -20.5t-12 -18.5q-13 -19 -29 -30l-10 -7q-6 -4 -10 -5q-2 -1 -4.5 -2t-4.5 -2q-6 0 -9 -1h-3l-1 -1l-8 -2l-4 -1q-4 -1 -7 -1.5t-6 -0.5q-6 -1 -12 -1h-11h-19l-2 -1q-5 0 -15 2l-16 6t-15 8q-8 5 -15.5 10t-12.5 13q-5 7 -8.5 15.5
t-5.5 16.5l-6 18t-4 19q-1 9 -1 18t-2 18q-1 5 -1 9t-1 9l-3 18q-1 8 0.5 16.5t-0.5 16.5v3q0 1 -0.5 1.5t-0.5 1.5l1 5q0 7 4 8q2 2 3.5 1t3.5 -2q5 -1 15 -1h13.5t13.5 -1l10 -2q3 -1 5.5 -1t5.5 -2l3 -3q3 -2 3 -6q0 -7 -0.5 -13.5t0.5 -13.5t1 -13.5t1 -13.5
q2 -13 3.5 -25.5t3.5 -25.5q2 -10 4.5 -18.5t8.5 -16.5q2 -2 5 -2.5t5 -1.5l12 -2t13 -1q12 0 26 7l5 2l1 1q5 5 10 15l3 7l1 1v2q0 4 0.5 7t0.5 7q0 32 -6 62q-2 8 -5 14.5t-5 14.5q-1 3 -2 5.5t-2 5.5l-2 5l-3 6q-5 9 -10.5 18t-11.5 17q-3 5 -6 9.5t-5 9.5t-5 9t-5 9
l-4 9l-3 4l-8 10l-7 11q-5 6 -9.5 11.5t-9.5 11.5q-8 11 -14.5 23.5t-12.5 24.5q-3 7 -6 13.5t-5 13.5l-1 4q-11 15 -15 33q-2 11 -3.5 21t-3.5 21q-3 12 -5 24t-3 24t-0.5 24t2.5 24t5 23.5t6 23.5q2 5 3.5 10t3.5 10l3 6l7 15q2 3 3 6t5 5q2 4 4 5l4 3l7 6l18 12
q5 3 9.5 5.5t10.5 3.5h12h2q5 2 9.5 2h9.5z" />
    <glyph glyph-name="t" unicode="t" horiz-adv-x="366" 
d="M37 714q5 0 9 -0.5t9 -1.5t8.5 -1h8.5q11 0 21 -0.5t20 -1.5t19.5 -1t19.5 -1q9 -1 18.5 -0.5t18.5 -1.5q10 -2 19 -3.5t19 -2.5q5 -1 10 -0.5t10 -1.5q5 -1 9 -1.5t9 -0.5t9.5 -0.5t9.5 -1.5t16 -1h6.5t6.5 -1l9 -2q5 -1 15 -1h4l6 -1h3l2 -1q4 -2 4 -4q2 -2 2 -4
q0 -6 -2 -16q-2 -7 -4 -19l1 -15v-7q0 -2 -1 -3l-1 -1l-1 -3v-4q0 -3 -3 -5t-5 -1l-9 3l-4 1q-5 1 -9 1t-9 1q-10 1 -19.5 3t-19.5 4l-39 6l-9 2q-1 -5 1 -13q1 -5 1 -9v-9v-21t-1 -21v-11q2 -9 2.5 -18.5t1.5 -18.5q2 -11 3 -21t1 -21v-11q0 -2 0.5 -4.5t0.5 -4.5l-1 -11
l1 -8q1 -10 -0.5 -19.5t-1.5 -19.5v-18q0 -5 0.5 -9t0.5 -9q0 -10 1 -19.5t0 -19.5q-1 -5 -1.5 -10t-0.5 -10t0.5 -9t0.5 -9q1 -20 0 -39v-3q1 -1 1 -4q-1 -3 -0.5 -6.5t-0.5 -6.5q-1 -4 -1 -13l-2 -29q0 -5 -0.5 -9t-0.5 -9v-16q0 -8 0.5 -15t-0.5 -15t-2 -15t-2 -15
l-3 -30q0 -4 0.5 -7.5t0.5 -7.5t-1 -7t-1 -7v-3v-2v-2l3 -6q2 -4 3 -7t-1 -8q-2 -3 -6 -3l-4 1h-4l-4 -1l-10 1h-20h-9.5t-9.5 1q-2 1 -4.5 0.5t-4.5 0.5h-8q-2 -1 -3.5 0.5t-1.5 3.5l-2 2q-2 4 -2 6q-1 4 0 7.5t1 7.5q0 10 1 15q2 8 2 17t1 17q2 17 4 34.5t2 35.5
q0 9 0.5 18t0.5 18v17.5t2 17.5q2 8 3 16.5t1 16.5v18q0 5 1 9t2 9q2 11 1.5 22.5t-1.5 22.5q-1 12 -1 24v24v16.5t1 16.5l-1 11q-2 4 -2 6v9l-1 23v2l-1 7l-2 8q-2 8 -2.5 16t-1.5 16q0 7 -0.5 13t-1.5 13q-1 5 -1.5 9t-0.5 9v20q0 11 -1 21t-3 21q-1 5 -1.5 10t-0.5 10
l1 13h-2l-17 2q-5 1 -10 1.5t-10 0.5l-61 1q-3 0 -4 1h-4q-5 0 -7 4q-1 3 -0.5 5.5t0.5 5.5v9q0 5 2 15q0 2 0.5 3.5t0.5 3.5l1 6v2v3l1 15q0 3 2.5 4t4.5 -1z" />
    <glyph glyph-name="u" unicode="u" horiz-adv-x="447" 
d="M126 714q10 0 15 -7l1 -2q3 -3 2 -9l-4 -13q-1 -3 -1 -6.5v-6.5v-16t-1 -16t-1 -15t-1 -15q-1 -6 -0.5 -12t0.5 -12q0 -5 -0.5 -9.5t-1.5 -9.5q0 -10 0.5 -19.5t-0.5 -19.5v-21q0 -5 -0.5 -10t-0.5 -10q0 -11 -1 -21t-1 -21q0 -5 -0.5 -11t0.5 -11q1 -6 1.5 -11.5
t1.5 -11.5q0 -5 0.5 -10.5t1.5 -10.5t1 -9t1 -9q2 -12 1 -24t-1 -24v-13q0 -2 -0.5 -4.5t0.5 -4.5q2 -5 2 -10t1 -10l1 -11v-12q1 -5 1 -10.5v-10.5v-47v-26l6 -14q2 -5 3.5 -10t3.5 -10q2 -4 3 -8t3 -8t4.5 -8.5t5.5 -7.5l14 -13l9 -8l9 -4l15 -6h6l3 -1q4 2 12 2
q5 0 9.5 1t9.5 3q4 2 7 3t5 4q7 7 8 12l2 10t1 10t0.5 9.5t0.5 9.5t0.5 10.5t0.5 10.5v22q0 19 3 39q2 11 2 22.5t1 22.5q0 5 0.5 10.5t0.5 10.5q1 6 1 12v12q0 12 -0.5 24t-0.5 24v48v13t1 13q0 2 0.5 4.5t0.5 4.5v10l2 12l2 12l2 23l1 25q0 5 0.5 10.5t0.5 10.5q1 12 1 24
v24t0.5 24t1.5 24l2 23q0 2 0.5 4.5t0.5 4.5q0 8 1 12q1 6 1.5 12t2.5 12q2 5 3.5 9t3.5 9q1 7 9 5q5 1 10 1h10t10.5 0.5t10.5 -0.5h1h4q2 0 4.5 0.5t4.5 0.5h8q3 0 6.5 -1t5.5 -4q2 -2 0.5 -5l-2.5 -5l-1 -1v-1v-1q-2 -8 -4.5 -16t-3.5 -16q0 -4 -0.5 -8t-0.5 -8l1 -16
v-16t-1 -16l-2 -33q-1 -6 -1 -12v-12q0 -5 -0.5 -10.5t-0.5 -10.5q0 -11 0.5 -22.5t0.5 -22.5t-0.5 -21t-1.5 -21t-2.5 -22t-2.5 -22q-1 -12 -2 -23.5t-1 -23.5q0 -5 -0.5 -10.5t-0.5 -10.5v-10.5t-1 -10.5t-1.5 -10.5t-0.5 -10.5v-10.5t-1 -10.5t-2 -10.5t-1 -10.5v-9.5
t-1 -9.5q0 -3 -0.5 -6t-0.5 -6v-10v-22q0 -12 -1.5 -23.5t-3.5 -23.5l-3 -25q-1 -5 -1.5 -10.5t-0.5 -10.5q0 -3 -0.5 -5.5t-0.5 -4.5q0 -4 -2 -12q-1 -5 -1.5 -10.5t-2.5 -10.5q-4 -9 -10.5 -17t-13.5 -15q-8 -8 -17 -14q-5 -2 -9 -3.5t-9 -3.5q-6 -2 -11.5 -3t-11.5 -1
h-12l-19 1q-4 -1 -12 -1q-10 0 -15 1l-14 2q-9 1 -18 2.5t-17 5.5q-8 3 -14.5 8.5t-12.5 10.5l-24 24q-6 6 -11.5 12t-10.5 13q-6 8 -8 13l-3.5 7l-3.5 7l-5 14l-2 6l-2 8v1v3v4q0 9 -1 18t0 18q1 10 0.5 19.5t-0.5 19.5q-1 5 -2 10.5t-2 10.5q-1 8 -1 15t-2 15
q-2 14 -2 28.5v29.5q0 7 0.5 13.5t0.5 13.5q0 5 -2 15l-1 14q-1 7 -2 13.5t-1 13.5v27q0 11 -0.5 20.5t-0.5 20.5q0 5 0.5 10.5t1.5 10.5q1 11 2 21t1 21v22.5t1 22.5q1 12 1 24t1 24q1 11 2.5 22.5t2.5 22.5q0 6 -1 12t-1 12q0 2 0.5 4t-0.5 4l-1 3q-2 2 -2 3q-1 3 -1 9
q0 8 7 6h5h18l19 1q5 1 9.5 1.5t9.5 -0.5z" />
    <glyph glyph-name="v" unicode="v" horiz-adv-x="410" 
d="M35 699q2 0 3 -0.5t3 -0.5h6q5 -1 15 -1h13.5t13.5 1h10t10 -2q6 0 5 -6q-1 -3 -0.5 -6t0.5 -6v-9l1 -6q2 -8 5 -16t5 -16q1 -4 2 -7.5t2 -7.5l2 -15q2 -8 3 -16.5t1 -16.5q1 -17 4.5 -34t6.5 -34q2 -9 3 -18l2 -18q1 -8 2 -15t1 -15q0 -11 1.5 -21t2.5 -21q1 -6 1 -12
t1 -12l3 -21q1 -6 1.5 -12t2.5 -12q2 -5 2.5 -10.5t1.5 -10.5l9 -47q2 -11 3.5 -23t3.5 -23t2.5 -23t2.5 -23t3.5 -22.5t4.5 -22.5l2 -5l3 18q3 17 10 31q5 13 8 29q1 4 1 7.5t1 7.5l2 14q2 10 2 15l1 16q1 8 2.5 15t3.5 15t3 16.5t3 16.5t4 16.5t4 16.5q4 23 7.5 46.5
t6.5 46.5t7 45t11 44q3 11 5.5 22.5t4.5 22.5t4.5 22.5t4.5 22.5q2 10 3 19.5t2 19.5q0 7 3 13q1 5 2.5 8.5t2.5 8.5t4 8.5t9 1.5q3 -1 5.5 -2.5t5.5 -2.5l11 -3l20 -6l6 -2t6 -1q6 0 8 -2q3 -3 1 -11q-1 -3 -1 -6t-1 -6t-1 -6t-1 -6l-2 -16q-2 -11 -3.5 -20.5t-3.5 -19.5
q-3 -20 -7.5 -40.5t-8.5 -40.5q-2 -10 -4 -19t-4 -19t-3.5 -19.5t-3.5 -19.5q-1 -5 -1.5 -10.5t-2.5 -10.5t-2.5 -10.5t-1.5 -10.5l-5 -19q-1 -5 -1.5 -9t-2.5 -9q-4 -11 -6.5 -22t-4.5 -22q-2 -12 -5 -23.5t-5 -22.5q-2 -12 -3.5 -24t-3.5 -24l-3 -23q-1 -2 -2 -5t-1 -5
q0 -7 -1 -10t-1 -6t-1 -6l-2 -11q0 -6 -1 -9l-3 -10q-3 -11 -5 -21.5t-5 -21.5q-1 -2 -0.5 -4.5t-0.5 -4.5l-2 -4t-1 -4q-1 -5 -1.5 -9t-2.5 -9q-2 -6 -3.5 -12t-4.5 -11q-2 -2 -2.5 -3t-1.5 -4q0 -2 -0.5 -4.5t-0.5 -4.5t-2 -6v-1l-2 -7q-3 -8 -11 -8h-9t-9 1q-6 0 -8 2
q-4 2 -8 2q-1 -1 -3 -1l-9 2l-23 -3h-13q-2 0 -4 2l-1 3q-7 0 -9 1q-2 2 -2 5v2q-1 2 -1 6q-2 3 -2 6t-1 7l-2 19l-7 43q-4 21 -7 42t-8 42q-5 23 -5 43v9t-1 9l-2 10l-2 10q-2 10 -3 20t-3 20l-3 22q-1 5 -2 10.5t-2 10.5l-9 45q-1 5 -1 15q0 2 -0.5 4.5t-0.5 4.5l-2 21
q-1 6 -1 12t-1 12l-3 23q-1 6 -1.5 12t-2.5 12q-2 5 -3 10.5t-2 10.5q-5 22 -9.5 43.5t-10.5 43.5q-3 11 -6 21.5t-8 21.5q-4 9 -6.5 17.5t-2.5 18.5q-1 1 -1 3q-1 6 1 12t9 7z" />
    <glyph glyph-name="w" unicode="w" horiz-adv-x="566" 
d="M81 705q3 0 7.5 -1t3.5 -6q-1 -7 1 -13.5t4 -13.5t2.5 -13.5t2.5 -13.5q1 -4 1 -7.5t1 -7.5l2 -15q1 -8 2 -15t3 -15l5 -28q2 -8 2.5 -15t2.5 -15q4 -14 6 -29t5 -29l5 -24q2 -6 3 -12t1 -12t1 -12l2 -12l4 -21q2 -11 4.5 -22.5t5.5 -22.5t5 -22.5t4 -22.5t4.5 -22
t3.5 -22q0 -6 1 -12t1 -13q0 -5 0.5 -10t1.5 -10q2 -5 3 -10.5t2 -10.5q1 -6 1 -12v-12l3 18q3 11 3 21.5v21.5v22.5t2 22.5t3 21t2 21l3 21l3 21q1 5 1 10.5t2 10.5t2.5 10.5t1.5 10.5t2 10.5t2 10.5q1 6 1.5 12t1.5 11l9 41v3q0 5 3 10q2 2 2.5 4.5t2.5 4.5q4 6 11 4
q4 0 6 -1q6 -2 12 -3t12 -3q3 -1 10 -1q4 0 10 -2q4 -2 2 -6l-2 -6l1 -2q2 1 6 1q2 0 5.5 -1.5t2.5 -4.5q-2 -5 0 -8.5t3 -8.5q1 -6 1.5 -12t2.5 -12q2 -5 2.5 -11t1.5 -11l5 -22l5 -22l6 -21q2 -5 2.5 -9.5t2.5 -9.5l6 -18q4 -11 5.5 -22t3.5 -22t3.5 -22.5t3.5 -22.5
q2 -14 4 -22q2 -5 2 -10.5t1 -10.5q0 -2 0.5 -4t0.5 -4v-5l1 -6l1 -4l1 -2l2 -9l3 -17q2 -8 3.5 -15.5t3.5 -14.5l2 -6l1 -3l1 -2l1 5l1 9l2 7q2 7 2 14t1 15t1 16.5t1 16.5t2.5 16.5t2.5 16.5t2 15t1 15v16.5t1 16.5l3 34q1 8 2 16.5t3 16.5l4 25q1 5 2 10.5t2 10.5
q1 6 2 11.5t2 11.5l3 22q2 12 2 24t1 24v12t1 12l1 10q0 7 1 10q4 11 6 22t5 22q1 3 0.5 6t1.5 6v8l3 21q2 11 2.5 22.5t1.5 22.5l1 25q1 5 1.5 10.5t2.5 10.5q0 8 3 14q1 2 6 2h2l2 1h3h1h2q3 0 9 -2q5 -1 10.5 -2t10.5 -1l10 -1q2 0 5 -0.5t5 0.5q6 2 8 -5v-2v-3v-2
q0 -5 1 -9t0 -9q-1 -6 -1 -12v-12t-0.5 -12t-0.5 -12v-18q-1 -19 -4.5 -37t-7.5 -36q-1 -3 -1 -6t-1 -6l-2 -6l-1 -3q-1 -2 -1 -8l-1 -27q0 -12 -3 -24l-6 -24q-2 -5 -2 -10.5v-11.5q-1 -11 -3.5 -22.5t-3.5 -22.5q0 -4 -2 -12l-1 -10q-1 -5 -1 -10.5v-10.5t-1 -10.5
t-1 -10.5v-10.5t-1 -10.5q-1 -6 -1 -12t-1 -12l-3 -21q-1 -8 -1 -16.5t-2 -16.5l-5 -24q-2 -11 -4.5 -22t-3.5 -22q0 -5 -1 -10l-2 -10q-1 -4 -2 -7.5t-2 -7.5l-3 -21l-3 -19l1 -1q2 -5 3 -10l2 -10t1.5 -10.5t0.5 -10.5q0 -7 -9 -9q-3 0 -5.5 1.5t-5.5 1.5l-13 1
q-4 0 -7 -0.5t-7 0.5q-3 1 -9 1q-7 0 -10 -1t-6.5 -1h-6.5q-5 0 -9 -0.5t-9 -1.5q-3 -1 -6 -1t-5 -1t-5.5 -2t-5.5 1t-2.5 4.5t-2.5 4.5q-5 5 -6 10l-1.5 4.5t-1.5 3.5l-4 8t-4 9t-2.5 9t-2.5 9t-3.5 9t-3.5 9q-2 10 -3.5 19.5t-4.5 19.5q-2 5 -2.5 10t-1.5 10t-2.5 10.5
t-3.5 10.5q-5 20 -7.5 40t-7.5 40q-2 8 -4 16.5t-4 16.5l-1 -6l-6 -36l-3 -18l-3 -17v-2v-2l-1 -5l-1 -9l-3 -18l-12 -68l-1 -8l-1 -4q0 -5 -0.5 -10t-1.5 -10l-1 -15v-1v-2v-4l-1 -4l-1 -2l-1 -7l-1 -4l-1 -3q-1 -2 -5 -8q-3 -8 -13 -8t-19.5 0.5t-19.5 0.5l-16 -1h-14
q-5 0 -7 8l-2 10q-2 2 -2 3l-1 4q0 1 -1 2.5t1 -1.5q-2 4 -4 12q-2 7 -4 19l-3 19q0 8 -1 11l-2 8l-6 42q-2 11 -3 21t-2 21t-1.5 21t-2.5 21l-3 21q-1 5 -2 10.5t-1 10.5q0 3 -1.5 7.5t-2.5 8.5q-1 5 -2 10.5t-3 10.5q-2 11 -4.5 21t-5.5 20q-2 6 -2.5 12t-2.5 12l-6 21
q-2 5 -3.5 10.5t-2.5 11.5q-1 5 -1.5 10.5t-2.5 10.5t-2.5 10.5t-1.5 10.5l-2 21q-1 11 -2.5 22.5t-3.5 22.5l-4 24q-1 5 -1.5 11t-2.5 11q-3 11 -5 22.5t-4 22.5t-4 22.5t-4 22.5l-4 24q-1 6 -1 12t-2 12q-1 4 3.5 6.5t9.5 3.5q4 2 6 2l10 -1l8 1l4 1h4l23 -1z" />
    <glyph glyph-name="x" unicode="x" horiz-adv-x="377" 
d="M297 699q3 -1 9 -5q4 -3 10 -9q6 -4 8 -7q2 -2 4 -4.5t4 -4.5l4 -4l4 -4q3 -1 5.5 -3t0.5 -6t-4 -7.5t-3 -7.5q-2 -10 -4 -15t-3 -10t-3 -10l-6 -21q-6 -21 -15 -43q-5 -11 -8 -21t-8 -21q-1 -2 -2 -4.5t-2 -4.5l-3 -10l-9 -21l-4 -10l-5 -10l-9 -21l-8 -22l-6 -21
q-2 -5 -4 -10.5t-4 -11.5q-2 -5 -2.5 -10.5t-2.5 -10.5t-4 -11t-4 -11l-3 -9l-3 -6q-2 -6 -4 -8l2 -3q6 -8 8 -13q3 -6 5.5 -12.5t5.5 -12.5l14 -28l7 -13q1 -2 2 -3t1 -3q0 -4 1 -6l5 -10l2 -3q1 -2 0 -1q2 -4 4 -7.5t4 -7.5q2 -7 4.5 -13.5t5.5 -13.5l12 -27l6 -12l4 -10
q5 -7 9.5 -13t9.5 -12l10 -15q2 -2 3.5 -4.5t3.5 -5.5l1 -1l1 -2v-3v-1q0 -3 -2 -5q0 -10 -1 -15t-1 -9t-2 -9q-1 -3 -0.5 -7t-1.5 -7q-4 -7 -10 -4q-4 0 -6 1l-4 2h-2l-5 2l-2 1l-2 2q-6 2 -8 4q-6 3 -10.5 8t-9.5 10q-3 4 -5.5 7.5t-5.5 7.5t-6 7.5t-5 7.5l-18 34
q-2 5 -4 9t-4 9l-3 9q-6 5 -7.5 13.5t-3.5 15.5q-3 9 -7 17.5t-7 17.5q-4 9 -8 17.5t-9 16.5q-2 4 -4 7t-4 8q-2 -8 -5 -16l-6 -16q-2 -5 -4 -15q-1 -5 -5 -15q-3 -8 -5.5 -15t-4.5 -15q-5 -15 -11.5 -29.5t-13.5 -28.5q-3 -8 -6.5 -15t-6.5 -15l-6 -15q-2 -2 -2.5 -5.5
t-2.5 -6.5q-1 -2 -4 -5l-1 -4q-2 -7 -8 -5q-14 2 -27 3t-27 2q-7 2 -7 7q0 11 4 18q1 5 2 9l2 8q3 11 7 22.5t9 22.5l8 21q2 5 2 10.5t2 10.5q4 11 7.5 23t8.5 23q2 2 2.5 3.5l1.5 4.5q1 4 5 12q2 5 5 9t5 9q1 2 1.5 5t1.5 5q1 6 5 11q2 5 5 8.5t5 8.5q3 5 5 10.5t5 10.5
q2 3 2.5 7.5t2.5 9.5q5 11 6 22l2 7q-6 2 -6 6q0 3 -2 7q-9 20 -14.5 42t-13.5 43q-2 5 -5 10.5t-5 11.5q-2 5 -3.5 10.5t-3.5 10.5q-3 11 -6.5 22.5t-6.5 22.5t-6 23t-7 23q-3 11 -7 21t-8 21l-6 21q-1 5 -1.5 9.5t-2.5 9.5q-1 4 -5 12q-2 6 -4 9q-2 4 -4 7.5t-1 8.5
q0 3 4 5q6 4 9 5q2 1 4.5 2t5.5 2l9 4l12 9l12 6q4 1 9 0l3 -2l4 -8l7 -16l12 -33l3 -8v-1l1 -2l1 -3l1 -4l4 -15l3 -10l1 -2l1 -3l1 -2l1 -2l1 -4q2 -7 3.5 -13.5t3.5 -12.5l1 -5l1 -2l1 -4l3 -13q2 -6 2.5 -11t2.5 -10l3 -11l4 -11l4 -11l2 -5l1 -1l1 -2q12 -25 18 -52
l1 -4l1 -4l1 2q6 10 11.5 20t10.5 21q9 22 16 44t16 44q5 11 9 21t8 21q2 6 5 11.5t5 11.5q2 5 3.5 10.5t3.5 10.5l10 42q2 5 3.5 10.5t5.5 10.5q0 5 4.5 8.5t8.5 5.5q2 1 4.5 2.5t5.5 0.5z" />
    <glyph glyph-name="y" unicode="y" horiz-adv-x="420" 
d="M331 702q2 1 5 0.5t5 -0.5q8 0 12 -1q7 -1 14 -0.5t14 0.5h12t10 -5q2 -4 0 -11v-5q0 -2 -0.5 -3t-0.5 -3q0 -4 -1 -7.5t-2 -7.5l-3 -12q-4 -10 -7 -14l-1 -9q-2 -11 -4.5 -21t-4.5 -21q-5 -23 -13.5 -43.5t-13.5 -43.5q-2 -6 -3.5 -11.5t-3.5 -10.5t-3.5 -10.5
t-3.5 -10.5q-2 -6 -4.5 -12t-5.5 -11l-2 -4l-1 -3l-5 -14l-1 -3l-2 -5l-3 -10l-4 -21l-5 -23q-1 -5 -1.5 -10t-2.5 -10q-4 -11 -7 -21.5t-8 -21.5l-3 -6l-1 -3q-1 -2 -1 -4.5t-1 -4.5t-1 -5t-2 -5l-2 -3l-3 -6q0 -5 0.5 -10.5t0.5 -10.5q1 -8 0.5 -15.5t-0.5 -15.5v-27
q1 -8 1.5 -15.5t0.5 -15.5l1 -62v-31v-16v-3q4 -10 6 -22q2 -8 -5 -10q-6 -1 -13 2l-12 2l-2 1h-5h-28h-11q-7 0 -10 8q-2 5 0 11q-1 4 -0.5 7.5t0.5 7.5v2l-1 8v8v4v4v14v10q-2 8 -2 13t-2 13q-1 4 0 7.5t0 6.5l-2 15l-2 15q-2 15 0 31q0 4 -0.5 7.5t-0.5 7.5l-1 15
q0 4 -0.5 7.5t-0.5 7.5q0 3 2 9h-13q-7 0 -5 7l1 5l-1 1q-3 3 -3 6l-3 9q-1 3 -1 6t-2 5l-4 9q-2 3 -2.5 6t-2.5 6q-4 6 -5 9q-2 5 -3.5 11t-3.5 11q-3 11 -8 22t-9 22l-6 21q-2 5 -3 10t-3 10q-2 6 -4 11.5t-4 10.5t-3.5 10t-3.5 10q-4 11 -7 22.5t-6 22.5q-2 6 -3.5 12
t-3.5 12q-2 5 -4 9.5t-4 9.5l-5 21q-1 5 -2.5 10t-2.5 10q-2 13 -6 23q-2 5 -3 10.5t-3 10.5q-1 3 -1 6t-1 6l-4 10l-5 10l-1 2l-3 7v3l-4 10q-2 5 -2 11t6 8q4 2 8.5 1t9.5 -1h31q3 0 5 -2l1 1q2 1 6 1q4 1 9 0q6 -3 9.5 -9t5.5 -12l6 -23q2 -5 2.5 -10.5t2.5 -10.5
t3 -10.5t1 -10.5t1 -10.5t2 -10.5q2 -11 4.5 -22.5t5.5 -22.5q4 -11 8.5 -22t8.5 -22q2 -6 3.5 -12t3.5 -12q2 -5 4 -10.5t4 -10.5q3 -11 5 -21.5t7 -21.5t8.5 -21t8.5 -21q2 -5 4 -10.5t2 -11.5l1 -14l2 -9l2 4v4q0 5 1 8q-1 -2 0.5 1.5t2.5 4.5l1 4l1 5q-1 -2 0 0.5t2 4.5
l2 9l4 11v1v1l1 3v1l1 3l1 3l3 10q2 8 5 15.5t6 15.5q6 20 11.5 39t13.5 38q2 5 3 9.5t3 10.5q2 5 2.5 10.5t2.5 10.5q4 11 7.5 22.5t5.5 23.5q2 11 4.5 22.5t5.5 22.5q2 9 5.5 17.5t8.5 16.5l3 13q2 7 7 8h3z" />
    <glyph glyph-name="z" unicode="z" horiz-adv-x="348" 
d="M275 685q4 0 7 1t7 -2l3 -6q2 -5 4 -10.5t4 -10.5l1 -2l4 -8l1 -1l3 -6q2 -2 3.5 -4.5t2.5 -5.5l1 -3q0 -4 -1 -6v-6q-3 -19 -9 -35q-4 -10 -5 -15q-1 -4 -2 -7.5t-2 -7.5q-3 -17 -8 -33t-10 -33q-3 -8 -5 -16.5t-5 -16.5l-7 -18q-2 -4 -3.5 -7.5t-3.5 -7.5l-4 -13
l-3.5 -7l-3.5 -7q-3 -7 -5.5 -14.5t-5.5 -14.5q-5 -10 -10 -19.5t-8 -20.5q-6 -20 -17 -41q-5 -10 -9.5 -19.5t-9.5 -19.5q-2 -5 -4 -11t-5 -11q-2 -5 -4 -9l-4 -8l-7 -21l-7 -21l-8 -22l-3 -10l-1 -2l-1 -8q-1 -4 -3 -10l-3 -7l-1 -2l-3 -9l-1 -5v-1v-1l-1 -8v-1
q0 -10 -1 -15l10 -2l15 -3q5 0 15 -2l6 -1h62l17 -1l9 -1h1h28h2h2h6l2 1q7 0 10 -2t5 -8q2 -5 1.5 -11t-0.5 -12q0 -2 -0.5 -4.5t-0.5 -4.5v-6v-2q0 -5 -5 -8q2 -5 3 -9t2 -9q0 -7 -7 -7q-8 0 -15 3l-8 1q-4 2 -6 2h-8q-2 0 -3 0.5t-3 0.5q-4 0 -7 1t-7 1h-14
q-15 1 -29.5 1.5t-29.5 0.5h-18q-5 0 -8.5 0.5t-7.5 1.5h-16q-4 0 -7 0.5t-7 1.5q-7 2 -13.5 1.5t-13.5 1.5q-3 1 -6 1t-6 1h-7l-6 2q-1 0 -1.5 0.5t-1.5 0.5q-5 0 -9 -0.5t-9 0.5q-1 0 -4 3q-4 2 -4.5 8.5t-0.5 9.5v1v2v6v6v2v9q0 6 -1 9t-0.5 7t2.5 6t4 2h3h3l2 9l5 20
q2 11 4.5 21t5.5 21q2 8 5.5 15t6.5 15q8 19 12 37q5 22 13 40l18 38q5 11 10.5 21.5t10.5 21.5t11 20.5t11 20.5q10 20 15 42t11 43l15 45q4 11 7.5 22.5t6.5 23.5l6 22t8 22l9 20l2 4q0 3 -1 4l-6 3h-5q-8 -1 -15 -2t-15 -2q-5 0 -10.5 -1t-10.5 -1l-21 -1h-9t-9 -1
q-8 -2 -16 0q-3 1 -6 0.5t-6 -0.5q-7 1 -13.5 0.5t-13.5 -1.5l-16 -1l-6 1q-4 -2 -7 -2q-5 1 -6.5 4.5t-2.5 8.5t-5 15q-3 9 -4.5 18.5t-4.5 18.5q-1 6 5 9q2 1 4.5 2t4.5 1q1 1 4 1l1 1q17 2 34.5 5.5t34.5 3.5h55q17 0 33 -0.5t33 1.5q10 0 15 1q4 1 7.5 0.5t7.5 0.5
q5 1 9 0.5t9 -0.5z" />
    <glyph glyph-name="braceleft" unicode="{" horiz-adv-x="289" 
d="M259 764q11 3 16 -7q2 -5 1.5 -11.5t-0.5 -11.5q0 -3 -0.5 -6t0.5 -6q0 -2 0.5 -4.5t0.5 -4.5q0 -7 -5 -10q0 -5 -1 -7q-3 -5 -10 -7t-13.5 -2.5t-13.5 -1.5l-24 -4l-8 -14l-4 -6q-2 -6 -2 -9q-1 -7 -1 -13.5t-1 -13.5l-5 -28q-1 -6 -2 -12.5t-3 -12.5l-4 -11
q-1 -4 -1 -12l-2 -12l-2 -12l-2 -18q1 -17 1.5 -34.5t-1.5 -34.5q-2 -11 -4.5 -20.5t-10.5 -17.5q-6 -6 -10 -8t-7 -3q5 -2 13 -8q7 -5 12.5 -11.5t9.5 -14.5q4 -9 5 -17q1 -4 2 -7.5t1 -8.5v-6q2 -7 2.5 -13.5t1.5 -13.5l4 -48q3 -48 3 -96q0 -24 -2.5 -48t-4.5 -48l-2 -15
l-1 -4q-1 -5 -1.5 -9t-0.5 -9v-2l1 -2q1 -2 1 -3.5t1 -3.5l1 -1q3 -1 7 -5l12 -2h10h7.5t6.5 -3t2 -5.5t1 -6.5v-1q2 -6 2 -10v-6l2 -6l2 -6q2 -11 -4 -16q-1 0 -1.5 -0.5t-2.5 -0.5h-3q-6 0 -12 3q-8 3 -16 3q-10 2 -19.5 4t-19.5 4q-8 2 -15.5 5t-14.5 8l-4 4
q-11 5 -14 11q-6 10 -6 23q0 3 -0.5 6t0.5 6q1 5 1 15v16.5t2 16.5q1 8 2 16.5t2 16.5t1 16t2 16q1 4 1 7.5t1 7.5l1 3v4q0 5 -0.5 9t-0.5 9v22.5t-1 22.5v3l-1 8l-1 11l-1 23v21.5t-2 21.5v2l-1 5l-2 10l-6 18l-1 3l-2 5l-5 9l-3 6l-15 15l-2 1l-14 3q-3 1 -5.5 1t-4.5 1
q-6 2 -4 8t2.5 12t0.5 12q0 5 0.5 11t4.5 10q2 2 7 1q2 1 6 1q3 0 5.5 0.5t4.5 0.5q2 2 4 2.5t4 2.5l8 15l3 5q2 8 2.5 16t2.5 16q3 10 3 22q0 5 0.5 10.5t0.5 10.5v12t1 12l3 22l2 12t3 12v9t1 9q2 13 4 25l4 24l5 24l6 21q2 6 3.5 11.5t6.5 10.5q9 9 20 13q22 8 50 10
q10 2 17 4q6 2 11.5 5t11.5 5z" />
    <glyph glyph-name="bar" unicode="|" horiz-adv-x="218" 
d="M105 774q2 0 12.5 1t14.5 -1l7 1q5 0 9 -1.5t4 -6.5v-8v-1q2 -4 -1 -9l-1 -11q-1 -5 -0.5 -9t-0.5 -9l-3 -36q-1 -13 -1 -25.5v-25.5v-99v-28.5t-1 -28.5l-2 -47q-1 -12 -0.5 -24t-0.5 -24v-10.5t1 -10.5t1.5 -10.5t0.5 -10.5q1 -12 0.5 -24t-0.5 -24v-12t-1 -12
q-1 -5 -1.5 -11t-0.5 -12l-1 -25q-1 -52 0 -103q1 -20 1.5 -39t2.5 -38q1 -12 3 -24t5 -24l2 -12q1 -3 1 -5.5t1 -5.5l2 -6l1 -3q5 -5 -4 -11q-2 -3 -5 -3q-1 -2 -3 -3t-3 -2q-5 -2 -10.5 -1.5t-10.5 0.5h-10q-1 0 -1.5 0.5t-1.5 0.5q-2 -1 -6 -1l-10 -3q-7 -2 -18.5 -3.5
t-12.5 10.5q-2 22 0 42q1 5 1.5 10t2.5 10l-1 33v24t1 24q1 10 0.5 19.5t-0.5 19.5l1 41l1 51v23q0 11 0.5 21t0.5 21q-1 9 -2.5 18t-2.5 18t-1 18v18q0 7 -0.5 13.5t-0.5 13.5q-1 38 -0.5 75t0.5 75q0 30 0.5 60t-0.5 60q0 4 -2 12q-1 4 -1 13l-2 19v18q-1 8 -2.5 15
t-0.5 15q-1 4 0 10q1 5 6 9t10 6q11 5 21 4z" />
    <glyph glyph-name="braceright" unicode="}" horiz-adv-x="279" 
d="M25 759q5 0 9 -0.5t9 -0.5l18 -1q5 0 9 -0.5t9 -1.5q8 0 12 -1q8 -2 15 -4t13 -6q18 -11 29.5 -29.5t17.5 -38.5q8 -24 8.5 -48.5t0.5 -49.5v-47q0 -5 -0.5 -10.5t-1.5 -10.5q1 -6 1.5 -12t2.5 -12q3 -12 3 -24q2 -5 5 -9t6 -9q5 -10 12 -17q4 -4 6 -5q3 -1 10 -1
q8 -1 11 -10q1 -4 1 -14l2 -27q0 -3 0.5 -6.5t-1.5 -5.5q-4 -4 -6 -5q-6 -6 -10 -8q-6 -4 -8 -6t-5 -4t-5 -5l-4 -6l-3 -9l-6 -21q-3 -12 -4 -24q-2 -23 -0.5 -46.5t2.5 -46.5q1 -24 1 -48v-48v-44v-14t-2 -14q0 -10 -1 -15q-2 -10 -4 -17q-7 -16 -22 -24q-11 -5 -20 -6
q-5 0 -9 -0.5t-9 -0.5q-6 -2 -11.5 -1.5t-11.5 -0.5q-5 -1 -9 -1.5t-9 -0.5q-13 -2 -19 7l-1 3l-2 6l-1 4l-1 5v11q0 2 -0.5 4.5t-0.5 5.5q1 5 3 10t7 7q4 2 7.5 2.5t7.5 2.5t7.5 3.5t8.5 2.5h2q4 2 7.5 3.5t7.5 3.5q3 2 7 6l-1 19q-2 24 -5 47.5t-3 47.5v22.5t1 22.5
q1 6 1.5 12t2.5 12l1 4v3q0 18 0.5 36t0.5 36v18t2 18q3 14 13 30q9 11 18 16q-8 2 -12 4l-4 3l-2 2l-3 3l-4 7q-2 4 -3.5 8t-3.5 8q0 1 -1 3.5t1 -0.5q-4 8 -5 12q-2 11 -2 23v23l1 98q0 11 -0.5 22.5t-0.5 22.5v10.5t-1 10.5l-1 3l-1 5l-3 10q-2 10 -6 18q-1 3 -4 6
q-4 6 -7 8q-4 3 -7.5 5.5t-8.5 5.5h-1l-23 1l-9 1l-6 1h-2q-1 0 -3 2q-3 -1 -6 0.5t-3 6.5q0 6 -0.5 12t-0.5 12v23q0 9 9 9z" />
    <glyph glyph-name="exclamdown" unicode="&#xa1;" horiz-adv-x="252" 
d="M149 402q-3 0 -6 0.5t-6 0.5q-8 0 -17 1.5t-16 6.5q-4 2 -7 5t-5 8t-2 9v9q0 13 1 27t8 26q0 8 3 16q4 9 9 11q4 2 7.5 2h7.5h17t19 -3q13 -2 21 -7q6 -4 9 -11q2 -2 2 -5v-2v-10q1 -11 1.5 -22.5t0.5 -22.5q0 -14 -6 -26q-4 -7 -15 -9q-11 -7 -26 -5v1zM73 -199
q-3 1 -7 2t-5 6q-1 3 -1 11q-1 4 -1 13q0 5 -0.5 8t-1.5 8l-1 11q0 3 -0.5 6.5t-0.5 6.5l2 20l4 45q1 10 1 20t1 20q1 11 3 22.5t4 22.5l11 48q3 12 4 24t3 24t3.5 24t2.5 24t0.5 24t-0.5 24t1 24l2 24q1 11 1 21t2 21q1 5 1.5 10.5t0.5 12.5l-1 5l-1 3q-1 2 -1 7v2
q0 4 3.5 7t6.5 5q8 5 20 7h1l1 1q3 2 6.5 2.5t6.5 1.5q7 1 13.5 1t13.5 1q5 1 11 0.5t8 -6.5q1 -4 -1 -11l-1 -4q0 -19 0.5 -37.5t-0.5 -37.5q-1 -20 -3 -39t-4 -39q-3 -25 -6.5 -49.5t-6.5 -49.5q-3 -24 -5 -48.5t-4 -49.5l-2 -24t-3 -24t-2.5 -24t-1.5 -24q-1 -11 -2 -21
t-2 -21q-1 -10 -1 -19.5t2 -19.5q1 -5 -6 -11q-5 -3 -10 -5q-8 -3 -19 -1l-6 1l-4 -1q-8 -1 -15 -2t-15 0z" />
    <glyph glyph-name="cent" unicode="&#xa2;" horiz-adv-x="343" 
d="M179 559q5 5 14 1.5t15 -4.5q5 -1 10.5 -1.5t6.5 -8.5v-3v-3v-1v-4v-8v-28q0 -6 -1.5 -12t-3.5 -12v-7l19 -2q20 -3 34 -16q15 -13 24 -32q5 -9 6 -19q2 -5 3 -10.5t2 -10.5q1 -7 1.5 -14t-1.5 -14q0 -6 -2 -14q-1 -2 -1.5 -4t-2.5 -4q-3 -2 -9 -2q-11 0 -22.5 2t-22.5 2
q-6 0 -6 6l-1 2q-2 5 -2 11.5t-1 12.5l-1 20l-1 2q-2 3 -4 5.5t-4 5.5l-4.5 4.5t-5.5 4.5l-4 1v-12t-1 -12q-1 -8 -1 -15t-1 -15t-2 -16.5t-1 -16.5l-1 -32v-48v-24t2 -24q3 -24 3.5 -48.5t-0.5 -49.5v-21t1 -21q1 1 2 1.5t-1 -1.5l9 9l4 5l2 10l6 18q2 6 3 12l2 12
q1 5 1.5 9t2.5 9q2 6 8.5 9t12.5 5q5 2 11 2h11q4 0 7.5 -2t3.5 -6q3 -3 3 -7q3 -5 3.5 -10t0.5 -10q0 -14 -3 -27q-1 -6 -1.5 -12t-2.5 -11t-3.5 -10t-3.5 -10q-7 -18 -19 -32.5t-30 -22.5q-12 -5 -27 -7q1 -9 1.5 -18t0.5 -17v-12q2 -9 4.5 -18.5t1.5 -19.5l1 -4
q2 -6 2 -7q0 -6 -4.5 -7t-8.5 -2l-22 -2q-6 -1 -14 -2.5t-12 5.5q-2 3 -1 6.5t2 8.5l-2 3q-1 3 1 7q0 2 0.5 4.5t0.5 4.5q0 4 -0.5 7.5t-1.5 8.5q-1 8 -1 16.5v17.5v21l-17 3q-11 3 -21 7t-19 12q-8 6 -14.5 13t-12.5 15q-15 18 -22 37q-6 16 -6 33q-5 10 -6 21
q-2 12 -2.5 24t-0.5 24v23t1 23q1 12 3 24l4 24t3 24t3 24q5 20 10.5 40t13.5 39q3 8 7 15.5t10 13.5q2 4 4.5 7.5t5.5 6.5q9 9 20.5 14t23.5 9l15 4l1 35q0 7 -0.5 13.5t0.5 13.5q-1 1 -1 3q0 5 1 9t2 9q1 3 1.5 6t2.5 5zM163 400q-2 -4 -4 -7.5t-4 -8.5q-3 -11 -6.5 -21
t-5.5 -21q-2 -6 -2.5 -12t-2.5 -11t-2.5 -9t-2.5 -9q-2 -6 -3.5 -12t-2.5 -12l-3 -22q-1 -6 -1.5 -12t-0.5 -12v-21q0 -7 -0.5 -13t-1.5 -13q-1 -5 -1 -10.5t-1 -11.5t-1.5 -12t0.5 -12t2 -11.5t3 -11.5l1 -5l4 -6q5 -8 10.5 -15.5t11.5 -15.5q7 -11 17 -20l-2 33
q-1 18 -1 36v36l1 99v49.5t1 49.5q0 11 0.5 22.5t1.5 22.5l-2 -1h-2z" />
    <glyph glyph-name="sterling" unicode="&#xa3;" horiz-adv-x="369" 
d="M213 698q11 0 23 -0.5t23 -5.5q4 -2 7.5 -3.5t7.5 -3.5l5 -3q33 -20 38 -60q2 -18 0.5 -36t-2.5 -36q0 -1 -2 -3q0 -7 -8 -9q-5 -1 -10.5 -1t-10.5 -1l-13 -2q-5 -1 -12 -1.5t-12 1.5q-4 2 -4 5.5t2 6.5q2 6 4 9v2l1 6l2 6q1 5 1 14v19l-1 6q-3 5 -7 9.5t-8 9.5l-7 7
l-8 1l-3 1h-2h-9l-22 -1h-2l-5 -1l-8 -2q-14 -5 -28 -17l-3 -3q-3 -7 -4.5 -15.5t-2.5 -16.5q-1 -13 -2 -25.5t-2 -25.5l1 -2q4 -15 12 -31q4 -8 6.5 -16t4.5 -16t6 -16t7 -16q5 -16 7 -36q1 -7 2 -13.5t3 -13.5q14 2 28.5 2.5t28.5 1.5h31l15 -1q5 2 8 -2q4 -5 6 -11.5
t4 -12.5l3 -12q1 -3 1 -6t1 -6l2 -6t0 -6q-2 -7 -10 -7h-12h-1q-9 -2 -18 -1.5t-18 0.5h-56v-2q1 -4 0.5 -7.5t-0.5 -7.5v-3l2 -12q1 -8 1 -16.5v-16.5v-9q-1 -14 -2 -28.5t-3 -28.5q-1 -7 -1.5 -13.5t-2.5 -13.5q-2 -9 -6.5 -18t-9.5 -17l-10 -16q14 -2 25.5 -8.5
t23.5 -12.5q6 -3 12 -6.5t12 -7.5l7 -4l2 -1h1l6 -2l4 -1q8 0 11 1l3 1l3 2l9 4q3 2 6 2t6 1l4 2q6 3 13 1q10 -3 10 -13q6 -13 13 -31q2 -2 2 -5q0 -2 -1 -3v-2q0 -4 -1 -6q-4 -8 -7 -11q-10 -8 -21 -11q-13 -3 -27 -3.5t-27 3.5l-36 12l-18 6t-17 8t-15.5 9t-15.5 6
t-15 2.5t-15 1.5h-7q-2 0 -4 -4l-1 -3l-2 -3l-2 -5q-2 -5 -3.5 -9t-3.5 -8l-3.5 -7t-6.5 -3q-3 0 -6.5 1.5t-6.5 3.5q-3 1 -3 5q-7 8 -12.5 17.5t-10.5 19.5l-6 11q-1 2 -2 3t-2 3q-1 4 3 7.5t6 5.5l2 1q2 2 6 5.5t2 1.5l3 2l15 13q13 12 22 28q5 9 8.5 18.5t7.5 19.5
q2 5 4 8.5t4 8.5q2 6 3 12l2 12l1 5v5l1 11q1 5 1.5 10.5t0.5 10.5v13v5v3l-4 22l-5 30l-65 1l-5 1q-8 0 -8 8q0 5 2 13l1 13q1 4 1 7.5t1 7.5q2 8 2 12t3 6q2 2 3 2q5 0 9 -1t9 -2h30q-2 11 -5.5 22t-6.5 22q-5 13 -6 27q-1 5 -1.5 9.5t-2.5 9.5q-4 11 -8.5 20.5t-9.5 20.5
q-3 6 2 10q-1 6 -1.5 12t-0.5 12q-1 21 0 43t7 42q6 19 19 33q13 15 31 26q15 11 31.5 16t33.5 7q9 2 18 2h18z" />
    <glyph glyph-name="yen" unicode="&#xa5;" horiz-adv-x="439" 
d="M390 716q8 2 12 -2t0 -11q-2 -3 -3 -6t-3 -5l-1 -1l-2 -4l-7 -8q-6 -6 -10 -13l-2 -12q-5 -23 -10 -45t-10 -45t-12 -45.5t-15 -45.5l-6 -18q-2 -7 -3.5 -13.5t-3.5 -13.5q-2 -8 -3.5 -15.5t-3.5 -15.5t-4.5 -16t-4.5 -16t-3 -16.5t-3 -16.5l-2 -10l29 -1q8 0 15.5 0.5
t15.5 -1.5h8t8 -1q5 -2 6 -4q4 -2 4 -7l1 -40q0 -9 -8 -9q-5 0 -8.5 1t-7.5 3q-1 -1 -3 -1q-8 -1 -17 -0.5t-17 0.5h-44q-2 -6 -3.5 -12t-3.5 -12v-4l1 -15v-6l19 2q17 2 33 4t33 1q2 0 6 -2q13 0 16 -10q1 -2 0.5 -5t-0.5 -5v-11v-12t1 -12q0 -7 -8 -7h-7l-3 -1
q-8 -2 -17 -2t-17 -1l-59 -5v-8q0 -4 -0.5 -7.5t-0.5 -7.5t-0.5 -7.5t-0.5 -7.5q0 -9 0.5 -18t0.5 -18q2 -15 3 -30l2 -30q1 -11 -12 -17.5t-24 -4.5l-4 -2h-2q-7 -2 -16 -1h-9q-7 0 -8 3q-2 5 -1 10.5t1 10.5v11t-1 11t-2 10.5t-1 10.5q0 7 -1 10q-2 6 -2 9q0 2 2 4l-1 7
l-1 28q0 7 -0.5 13.5t-1.5 13.5l-39 -1q-9 -1 -18 -1.5t-18 -0.5h-19q-3 0 -6 -0.5t-6 -0.5l-6 -1q-11 0 -11 12q0 3 2 9l1 3l1 4q1 7 1 13.5v13.5q0 5 3 6.5t6 -0.5q4 4 7 4q17 -3 34.5 -0.5t34.5 4.5q8 1 16.5 1t16.5 1l-1 8q-1 11 -1.5 21.5t0.5 21.5l-1 2h-24
q-15 -1 -30 -3t-30 -2l-13 -2q-6 -1 -10.5 2.5t-4.5 9.5q0 2 1 4.5t1 4.5l2 13q2 8 4 12q1 2 2 4.5t1 5.5q0 7 7 7q6 0 9 -1l1 1q15 5 31 5h32h5l-8 20q-5 11 -9.5 21t-9.5 21l-5 11l-1 2l-10 29q-8 22 -17.5 43t-15.5 44q-14 48 -24 96q-3 14 -7 22l-8 19q-1 2 -2 5l-2 6
q-1 2 -1 4.5t-1 4.5l-7 17q-2 4 2.5 6.5t6.5 3.5l3 1q3 3 7 3q8 1 16.5 1t16.5 1l17 1q3 0 6.5 -0.5t6.5 -2.5q5 -4 8 -9.5t5 -11.5q2 -7 3 -14t3 -15q3 -16 6 -31.5t5 -31.5l3 -17q1 -4 2 -7l2 -6l3 -9l6 -18t7 -17q2 -5 4 -10.5t4 -11.5l7 -22l15 -43q4 -11 6.5 -21
t6.5 -21l7 -14h2q1 1 2.5 2t2.5 3v2v2q-2 3 2 5l3 15q1 5 2.5 10.5t3.5 10.5t3 9.5t2 9.5t1 10.5t1 10.5l4 20l8 41q4 22 9.5 43.5t10.5 43.5q5 21 11.5 42t11.5 42q0 2 1 3q3 7 13 7q4 0 7.5 -0.5t7.5 -0.5l5 1q2 0 3 0.5t3 0.5t3.5 0.5t-1.5 -1.5l12 3q5 1 10.5 2t10.5 2
l8 1q4 2 7 2z" />
    <glyph glyph-name="dieresis" unicode="&#xa8;" horiz-adv-x="322" 
d="M70 872q4 0 7 -1t7 -2l3 -1q13 1 28 -2q11 -2 16.5 -11t6.5 -20q0 -5 -0.5 -10.5t-1.5 -10.5l-1 -13q-2 -10 -6 -18t-15 -10q-8 -2 -14 -2q-5 -3 -13.5 -1.5t-13.5 3.5q-7 2 -14 4.5t-10 10.5q-3 7 -3 14.5t-1 14.5v12.5t1 12.5q2 8 4.5 15t8.5 12q4 3 11 3zM243 858
q10 0 13 -5q8 -5 11 -14t4 -18q1 -7 1.5 -14t-0.5 -14q-2 -8 -6.5 -16.5t-14.5 -6.5l-3 1q-5 -2 -10 -2.5t-10 -0.5h-11q-3 0 -6.5 -0.5t-6.5 1.5q-9 5 -10.5 15.5t-0.5 19.5v6v3v9.5t-1 8.5v8v2q-1 5 -0.5 9t5.5 7q2 1 6 1l1 1q13 6 27 1h4q3 0 6 0.5t6 0.5z" />
    <glyph glyph-name="copyright" unicode="&#xa9;" horiz-adv-x="654" 
d="M364 695h22.5t22.5 -2q26 -3 49 -13l20 -10q5 -3 9.5 -6.5t9.5 -7.5q17 -14 31 -31.5t27 -36.5q6 -9 11 -18t9 -19q4 -11 5.5 -22.5t2.5 -22.5t1 -22.5t1 -22.5l3 -22l4 -26q3 -24 3 -48t-2 -48q-1 -25 -6 -49l-8 -47q-2 -11 -3 -22.5t-3 -22.5l-4 -15l-3 -28
q-2 -11 -4 -21.5t-4 -21.5q-2 -8 -4.5 -16.5t-5.5 -16.5q-6 -18 -18 -33q-13 -16 -34 -24q-10 -4 -20 -6.5t-20 -5.5q-12 -4 -24 -6.5t-24 -2.5t-23.5 -1t-22.5 -2q-10 -1 -19.5 -2t-19.5 0q-11 -1 -21 -1h-21q-12 0 -24 1t-24 3q-21 3 -39 12q-9 5 -16.5 11.5t-15.5 13.5
q-17 15 -32 32q-8 8 -16 16.5t-14 19.5q-5 10 -9 20t-7 21t-6.5 22.5t-6.5 22.5q-3 12 -5.5 24t-4.5 24q-2 13 -4 25.5t-2 25.5v24t1 24q2 24 2.5 48t3.5 48q3 25 7 49t9 48q2 12 4.5 23.5t6.5 22.5l15 42q14 38 44 61q8 6 17 11t20 7q5 1 9 1.5t9 0.5l12 4l12 4q23 6 47 7
t48 1zM240 638q-11 -2 -21 -6l-2 -1l-4 -2l-8 -4l-7 -4l-3 -2l-1 -1l-9 -9l-2 -4q-3 -7 -5 -13.5t-5 -13.5q-5 -13 -10.5 -25t-10.5 -25v-3q0 -5 0.5 -9t-0.5 -9t-2 -10.5t-3 -10.5t-3.5 -9.5t-1.5 -9.5q-1 -12 -1.5 -24t-2.5 -23q-1 -6 -1.5 -11.5t-0.5 -11.5v-12t-1 -12
q-2 -12 -3.5 -23.5t-2.5 -23.5t-1.5 -24t-0.5 -24v-49q0 -11 2.5 -21.5t6.5 -21.5l8 -20l1 -2l2 -4l4 -9q5 -10 9.5 -19.5t9.5 -18.5q2 -5 5 -9t6 -9l5 -7l2 -2l4 -4l5 -4l3 -2l7 -5l17 -10l10 -5l3 -1l3 -1l18 -6q11 -2 21.5 -4.5t19.5 -3.5q11 -2 22.5 -3t22.5 -2h13h3
l5 1l20 5q11 2 21 4.5t21 5.5l5 2l2 1q4 2 7.5 4.5t7.5 5.5q12 7 19 19l5 10l6 9q-1 -2 0 -1q0 1 1 2l1 2l1 3l1 5l3 10l2 5l-1 -2l1 3l1 7l2 14q4 17 8 33t7 33q4 22 7 45q2 12 3 24l2 24q2 25 2.5 49.5t0.5 49.5q0 23 -4.5 44.5t-10.5 43.5q-3 11 -6.5 22t-6.5 22
q-2 5 -3 10.5t-3 10.5l-7 14l-1 1q-3 4 -6 7.5t-7 7.5l-7 6l-4 3l-1 1q-8 7 -17 11l-8 4l-5 2q-20 8 -37 11l-6 1h-1l-9 1l-18 1q-11 0 -22.5 0.5t-22.5 1.5t-22.5 1.5t-22.5 -0.5l-13 -1h-2zM320 561q12 0 26 -3l15 -2q14 -2 28 -9t23 -18q13 -16 20 -33q3 -8 4 -15.5
t2 -15.5q1 -5 1.5 -10.5t-0.5 -10.5l1 -9q0 -5 -0.5 -10t-5.5 -8q-1 -1 -7 -3q-3 -1 -9 -1l-11 -1h-9q-6 -1 -16 -2t-12 7t0 17l2 13q-1 3 -1 6.5v6.5q0 11 -7 23q-3 6 -6.5 9t-9.5 6l-12 6l-12 -2t-12 -3l-5 -2l-3 -1l-5 -3l-4 -7l-1 -2l-2 -4l-3 -6l-3 -6l-1 -2l-4 -11
l-3 -13l-1 -6v-2q-1 -6 -1 -12v-12v-51q0 -14 -0.5 -28.5t0.5 -28.5l1 -8l2 -11l3 -27l1 -13l1 -5q1 -5 2 -10.5t3 -10.5l2 -3l1 -2l6 -6l3 -2l9 -5l4 -1l9 -3l5 -1h9t9 1h2h2l9 2l3 2l3 3l5 5l1 2q-1 11 0 21t2 21l2 22q0 9 5 14q5 6 16 10q5 2 9.5 3t9.5 2t9 1.5t8 -3.5
q3 -3 4.5 -8t2.5 -9q2 -11 2 -23t-1 -23l-2 -23q-1 -5 -1.5 -10.5t-2.5 -10.5t-4.5 -10t-5.5 -10l-5 -7l-1 -3q-9 -16 -24 -28q-9 -6 -19 -9q-4 -2 -8 -3t-9 -2h-8h-4.5t1.5 1q-11 -2 -23 -2.5t-23 1.5q-20 2 -35 14.5t-26 29.5q-20 33 -28 74q-1 5 -1 11t-1 11l-2 8t-1 9v5
q-4 21 -5 42.5t0 42.5l3 48q1 12 1 24t2 24q3 22 14 44q5 9 10.5 17.5t13.5 14.5q18 15 37 19q17 4 39 4z" />
    <glyph glyph-name="guillemotleft" unicode="&#xab;" horiz-adv-x="387" 
d="M165 557l9 -6q3 -2 5 -5l11 -8q5 -4 10.5 -8.5t0.5 -12.5l-3 -3l-1 -2q-5 -11 -11 -21t-14 -20q-7 -10 -13.5 -19t-12.5 -20q-12 -23 -27 -42l-15 -17l-3 -4q5 -7 8.5 -13.5t7.5 -13.5l12 -22l7 -9q9 -11 16.5 -23.5t15.5 -24.5q4 -5 7 -10.5t7 -10.5q2 -4 4 -7.5t4 -7.5
l1 -1q2 -3 4 -4.5t4 -3.5l2 -4l1 -2q3 -1 3.5 -4.5t-1.5 -5.5l-3 -3l-1 -2q-5 -5 -7.5 -10.5t-4.5 -10.5l-10 -22q-2 -4 -6 -3.5t-6 3.5l-2 4l-4 3q-2 1 -2.5 2t-2.5 2q-2 2 -2 3q-4 3 -5 8q0 1 -1.5 3t0.5 0l-5 5q-5 5 -9 11t-9 12q-16 19 -27 44l-5 7q-6 12 -13 28l-3 7
l-8 10q-5 6 -9.5 12t-9.5 12q-4 5 -7 9.5t-5 10.5q-2 2 -2 5q0 5 -1 11t2 10l6 9q4 6 6 8l2 2q2 2 3.5 4.5t3.5 4.5q4 6 7 12.5t7 12.5l15 24q8 12 15.5 24.5t15.5 24.5q4 6 7.5 12t8.5 12q4 5 7.5 9.5t6.5 9.5q0 2 1 3q5 4 10.5 9.5t12.5 1.5zM287 539q2 2 5.5 1.5
t3.5 -4.5l2 -2l3 -3l7 -6q5 -5 9 -8.5t9 -7.5q4 -3 6.5 -7t-1.5 -9l-1 -1q0 -2 -2 -4l-3 -3l-2 -2l-2 -3l-2 -3q-2 -4 -4 -7.5t-4 -7.5q-4 -5 -7.5 -10.5t-6.5 -10.5t-6.5 -10t-7.5 -10q-6 -8 -11.5 -15.5t-12.5 -14.5l-1 -3q-2 -5 -4.5 -9t-4.5 -9l-2 -5l6 -6l6 -8
q3 -4 5 -8.5t4 -9.5l1 -2l1 -1l9 -15q5 -8 9.5 -15t9.5 -15q8 -14 15 -28.5t14 -29.5l1 -1q1 -1 1.5 -2t1.5 -2q4 -2 6 -4q5 -5 -1 -9l-2 -1q0 -4 -3 -5q-2 -2 -3 -3.5t-3 -3.5l-6 -7q-3 -4 -6.5 -7t-5.5 -7q-5 -7 -10 -8q-3 0 -6.5 3t-5.5 5v3q-5 4 -8.5 8.5t-6.5 9.5
q-4 5 -7 10.5t-6 10.5l-14 24t-15 23q-16 21 -27 49q-3 7 -6.5 13t-6.5 13l-3 5l-1 3l-1 2l-3 3l-1 2q-4 4 -5 9.5t1 10.5q2 4 3 5l5 6l1 2l1 3q5 11 11.5 20t13.5 19q6 9 11.5 18t11.5 18q6 10 12 19t12 19t12 19t14 17h4z" />
    <glyph glyph-name="registered" unicode="&#xae;" horiz-adv-x="662" 
d="M374 719h22.5t22.5 -2q27 -3 50 -13l20 -10q10 -6 20 -14q17 -14 31 -31.5t27 -36.5q13 -20 20 -39q4 -11 5.5 -23t2.5 -24q1 -11 1 -23t1 -26l1 -6l2 -12l4 -27q3 -24 3 -48t-2 -48q-2 -25 -6.5 -49t-8.5 -48q-2 -11 -3 -22.5t-3 -23.5q-2 -11 -5.5 -21.5t-7.5 -21.5
q-8 -22 -18 -42t-25 -38q-13 -16 -29 -28.5t-34 -22.5q-10 -5 -19.5 -9.5t-20.5 -7.5q-10 -3 -19.5 -4.5t-19.5 -3.5q-24 -4 -48.5 -6.5t-49.5 -1.5q-13 0 -25.5 1t-24.5 3q-23 3 -41 13q-10 5 -18 11.5t-16 14.5q-17 15 -32 32q-8 9 -16.5 18t-14.5 20q-10 18 -16 42
q-3 11 -6.5 22.5t-6.5 22.5q-3 12 -5.5 24t-4.5 24q-2 13 -4.5 25.5t-2.5 25.5v24t1 24q2 24 2.5 48t3.5 48q3 25 7 49.5t9 49.5q2 12 4.5 23.5t6.5 22.5l15 42q16 40 47 64q18 15 37 19q5 1 9 1.5t9 0.5l12 4l12 4q24 6 48 7t49 1zM250 652q-11 -2 -21 -6l-1 -1l-4 -2
l-8 -4l-7 -4l-5 -4l-7 -7l-2 -4q-3 -7 -5 -13.5t-5 -13.5q-5 -13 -10.5 -25t-10.5 -25v-2q0 -5 0.5 -9t-0.5 -9q-1 -6 -2 -11.5t-3 -10.5l-3 -10l-1 -5q-1 -1 -1 -2q-1 -12 -1.5 -24t-2.5 -24q-1 -6 -1.5 -10.5t-0.5 -11.5v-12t-1 -12l-2 -15v-4l-1 -6l-2 -23
q-1 -12 -1.5 -24t-0.5 -24v-49v-7v-2l2 -11q2 -5 3.5 -10.5t3.5 -10.5l8 -20l2 -4l4 -9q5 -10 9.5 -19.5t9.5 -18.5q2 -5 5 -9t6 -9l5 -7l1 -1l4 -4l5 -4l3 -2l6 -4l17 -10l10 -5l2 -1l3 -1l18 -6l21 -5l11 -2l4 -1h4q11 -2 22.5 -3t22.5 -2h13h3l4 1l20 5q11 2 21 4.5
t21 5.5l5 1l1 1q4 2 7.5 4.5t7.5 5.5l5 4l1 1l7 7l4 4l1 1l6 11q2 4 6 10q-2 -2 -1 -0.5t1 2.5l1 1l1 3l1 5l3 10l2 6l-1 -3l1 3l1 7l2 14q4 17 8 33t7 33l2 13l1 7v1l3 23q2 12 3 24l2 24q2 25 2.5 49.5t0.5 49.5q0 23 -4 42q-2 11 -4.5 22.5t-5.5 22.5t-6.5 22t-6.5 22
q-2 5 -2.5 10.5t-2.5 9.5l-7 14l-1 1q-3 4 -6 7.5t-7 7.5l-7 6l-4 3q-8 7 -17 11l-8 4l-4 2q-20 8 -37 11l-6 1l-9 1l-18 1q-11 0 -22.5 0.5t-22.5 1.5t-22.5 1.5t-22.5 -0.5l-13 -1zM271 604q8 -1 10 -12h6q13 1 25.5 2t25.5 0q17 -1 32.5 -5t28.5 -15q11 -9 17.5 -22.5
t11.5 -27.5q8 -22 11 -45t3 -46q0 -22 -6 -43q-3 -10 -6.5 -19.5t-9.5 -18.5l-6 -8q-4 -6 -7 -9q-8 -8 -17 -14q-11 -7 -26 -12q8 -11 13.5 -23t9.5 -25l5 -20q2 -5 5 -9t5 -9l6 -12q2 -3 3.5 -6t2.5 -6q3 -14 7 -22q4 -11 5 -19q3 -4 1 -9l3 -7q3 -5 0.5 -8.5t-7.5 -4.5
q-8 -1 -15 -1h-15q-7 0 -13.5 1t-13.5 1q-6 0 -8.5 4.5t-0.5 9.5l-1 8q-2 7 -3.5 13.5t-3.5 13.5q-2 8 -5 14.5t-5 14.5q-5 14 -9 28t-12 27q-7 13 -17 26q-2 3 -8 7q-3 3 -7 9q0 -15 0.5 -30t1.5 -30l1 -48l1 -25v-11v-5q1 -5 1.5 -11.5t-4.5 -10.5q-5 -5 -12 -5.5
t-13 -0.5q-8 -1 -15 -2t-15 0q-6 1 -6 8v9l-1 1q-2 2 -1.5 5t0.5 6l-1 9l-2 17q-1 12 -0.5 24t0.5 24l1 49l1 49v5v8l1 15l1 31q0 16 0.5 31.5t1.5 31.5q1 17 1 33t1 33q2 17 -1 30q-2 7 -3 13t-1 13l-1 3v1l-1 3q-1 3 -1 9v3q-3 3 -1 7.5t7 4.5t10.5 1t10.5 2t11 2t11 0z
M310 545l-5 -1l-4 -1l-2 -1l-1 -1l-6 -3l-3 -3l1 1l-1 -1v-4q1 -12 2.5 -23.5t2.5 -23.5q2 -25 0 -49q-1 -14 -2 -27t-3 -27q2 -6 2 -9v-5t2 -4q3 -2 9 -4q7 1 13.5 1h14.5l6 1h3l3 1l3 1l4 2l1 1l2 2l10 16l12 24q2 3 3 5.5t2 6.5l1 12v3v6q0 9 0.5 18t0.5 18v8l-1 9l-3 18
l-2 8l-2 3q-3 4 -6 7.5t-7 6.5l-1 1l-2 1l-3 2l-5 2l-9 2h-4h-11h-3h-3h-9z" />
    <glyph glyph-name="macron" unicode="&#xaf;" horiz-adv-x="316" 
d="M222 849q5 0 11 0.5t11 -0.5q2 0 6 -2q7 -1 11 -12l2 -3l3 -7q3 -6 3 -13l1 -16q0 -4 1 -6v-2v-2q4 -5 0 -7.5t-8 -2.5q-2 0 -8 2h-2q-11 -1 -22.5 -0.5t-22.5 0.5q-13 0 -25.5 -1t-25.5 -1t-25.5 -0.5t-25.5 -0.5h-30l-8 -1h-10.5t-10.5 1q-4 0 -4 5q0 3 2 9q1 2 1 4.5
t1 4.5q0 4 2 10v3q0 5 3 10l1 3l1 2l1 4q1 4 2.5 7.5t6.5 4.5q23 3 45 2.5t45 1.5q6 1 12 1.5t12 0.5h21z" />
    <glyph glyph-name="degree" unicode="&#xb0;" horiz-adv-x="280" 
d="M132 722q13 0 24 -4l6 -2l10 -2q5 -2 10.5 -3.5t10.5 -4.5q9 -5 14 -13t10 -17q2 -5 5 -8.5t5 -8.5q2 -6 4.5 -12.5t2.5 -13.5q0 -2 -0.5 -4.5t-0.5 -4.5l1 -4l1 -6l2 -12t1 -12v-12t-1 -12t-2.5 -13t-3.5 -18l-1 -5l-3 -11q-3 -11 -9 -21l-2 -4q-2 -10 -7 -17l-3 -5
q-1 -2 -4 -5q-2 -4 -8 -10l-9 -6l-3 -2q-4 -2 -7.5 -4.5t-8.5 -4.5q-11 -5 -22.5 -6.5t-23.5 1.5h-3h-5q-4 0 -12 2q-5 2 -9.5 3.5t-9.5 4.5q-15 10 -25 29t-14 38q-4 23 -1 50q2 23 1 46t10 44q5 8 7 18t10 17l3 3q2 4 4.5 7.5t5.5 6.5q9 9 17 13q5 2 15 2l8 3q4 1 12 1z
M127 665l-4 -2l-5 -3l-5 -4l-3 -3l-1 -2l-4 -7l-1 -3q-2 -5 -2.5 -10.5t-1.5 -10.5l-1 -5l-1 -4l-1 -12q-1 -6 -1 -12v-12t-0.5 -12t-1.5 -12l-1 -11v-6v-3l1 -8l2 -3l6 -9q5 -3 9 -10l2 -2l1 -1l4 -2l3 -2l3 -1l3 -1h3h5h3l5 1h1q9 5 16 10l2 1l3 3l1 1l1 2l8 16l1 3l2 5
l3 10l1 4v4v11l-1 44v12v6l-2 9l-2 5q-4 6 -7 10l-3 3l-4 3l-8 5l-3 1l-4 1l-9 2h-3h-3l-4 -1z" />
    <glyph glyph-name="plusminus" unicode="&#xb1;" horiz-adv-x="390" 
d="M208 547q6 0 9 -4q2 -2 2.5 -4.5t2.5 -4.5q5 -8 6 -17t1 -18v-5q1 -11 1.5 -22.5t0.5 -22.5t-0.5 -21t1.5 -21l1 -10l30 3q9 1 18 1.5t18 0.5h17h6l24 3q4 1 6 -2t2 -6q0 -2 0.5 -3t0.5 -3l1 -7q0 -4 0.5 -7.5t0.5 -7.5t-0.5 -7.5t-0.5 -7.5q0 -10 -1 -15q0 -8 -6 -9
q-5 -1 -10 -1.5t-10 1.5l-7 -1l-52 -3q-18 0 -36 -3l1 -46l1 -42v-8v-3l1 -8v-4q3 -6 3 -13q2 -7 1 -15.5t-9 -10.5q-4 -1 -7.5 -0.5t-7.5 0.5h-9.5t-9.5 1t-10.5 1.5t-10.5 0.5t-8.5 1t-8.5 2q-4 0 -7.5 1.5t-2.5 6.5l1 10l1 3q0 4 0.5 8t0.5 8v21q0 11 0.5 21t1.5 21l2 35
q-7 -1 -13.5 -1.5t-13.5 -0.5q-9 0 -18 0.5t-18 1.5q-8 -2 -12 -2q-10 0 -19 -3q-3 -1 -7 -1.5t-6 -1.5q-5 -1 -9.5 -0.5t-6.5 5.5q-2 2 -1.5 4.5t0.5 4.5v8l1 27l-1 5q0 5 2 12t8 7q19 1 37.5 2.5t37.5 4.5q9 2 18 2.5t18 1.5v55q0 10 -1 19.5t-2 19.5l-2 21v2l-2 6
q-1 4 -2 9t1 9q2 3 5.5 4t6.5 2q6 1 12 1.5t12 2.5l12 3q2 1 5 2t5 1h4zM319 123h9q4 0 6 -1l10 1q11 2 11 -8q0 -4 1 -7.5t1 -7.5t0.5 -7.5t0.5 -7.5t-0.5 -7.5t-0.5 -7.5q0 -10 -1 -15q0 -8 -6 -9q-4 -1 -9 -1.5t-10 1.5l-7 -1l-52 -3q-17 -1 -34.5 -3.5t-34.5 -4.5
t-34.5 -5.5t-35.5 -3.5q-9 0 -18 0.5t-18 1.5q-10 -2 -15 -2t-10 -1l-10 -2l-4 -1l-3 -1q-4 -2 -6 -2q-5 0 -9 3q-2 2 -2 5v6v19q1 10 1 19.5t1 19.5q0 8 7 6q1 1 4 1q19 1 37.5 2.5t37.5 4.5q17 2 34.5 4t34.5 4q9 1 18 2.5t18 3.5t18 2.5t18 1.5t18 1.5t18 0.5z" />
    <glyph glyph-name="uni00B2" unicode="&#xb2;" horiz-adv-x="241" 
d="M138 694q11 0 22 -2t20 -8q16 -11 26 -32q7 -16 9 -35q1 -10 0.5 -20t-4.5 -19q-4 -10 -6 -14l-6 -9l-6 -12q-2 -4 -4.5 -7.5t-5.5 -6.5q0 -7 -8 -13l2 1l-1 -2l-1 -2l-8 -11l-15 -20l-31 -34l-3 -3l-1 -1l-5 -9q-2 -5 -5 -8.5t-5 -8.5q-2 -6 -2.5 -12.5t-1.5 -12.5
q-1 -2 -1 -4.5t-1 -4.5q9 1 18 -0.5t19 -3.5l5 -1h3h11h24q10 0 10 -9q1 -1 1 -3q-1 -7 -3 -13.5t-4 -13.5q-1 -5 -2 -10.5t-6 -8.5q-2 -2 -6 -1.5t-7 1.5l-4 1h-4q-3 0 -9 2h-3l-7 1h-1l-6 1h-2h-1l-10 1h-24h-1l-4 -1l-5 -1l-13 -1h-2q-6 -1 -12 -1.5t-12 0.5q-7 0 -7 7
q0 3 -1 6t-1 6q-1 8 0 15.5t1 15.5v20t1 20q2 21 11 36q5 9 11 16l5 9q14 18 30.5 33t32.5 32l8 9l5 6q2 4 4.5 8t4.5 8q3 11 4 21.5t1 21.5t-1 16l-2 2q-1 0 -1 1q-1 1 0 1l-2 2l-6 4q1 0 -1.5 0.5t-1.5 0.5l-29 2q-1 -1 -5 -3l-2 -3q-3 -6 -4 -15q-1 -4 -0.5 -7.5
t-0.5 -7.5q1 -3 1.5 -6.5t-1.5 -5.5q-4 -6 -13 -4q-9 1 -18.5 1.5t-19.5 0.5q-2 0 -4 2q-7 2 -10 9q-3 8 -1 16t5 16q4 11 11 23q6 11 14.5 20.5t19.5 14.5l6 2q8 4 17.5 5.5t18.5 1.5h5z" />
    <glyph glyph-name="uni00B3" unicode="&#xb3;" horiz-adv-x="271" 
d="M132 699q11 1 21 -1t19 -8q5 -3 9.5 -7t7.5 -9l3 -5l3 -3q4 -4 6 -8.5t4 -9.5q5 -13 6 -23q0 -8 1 -12q2 -8 2 -12q0 -5 0.5 -11t-0.5 -11q-1 -6 -3.5 -11t-4.5 -10l-3 -8q-2 -6 -4 -11.5t-7 -10.5l-5 -6l4 -4q6 -6 9 -14q2 -5 4 -10.5t4 -10.5q3 -3 5 -10q1 -5 2.5 -10
t2.5 -10q1 -6 1.5 -12.5t0.5 -12.5t-0.5 -12t-1.5 -11q-2 -11 -3.5 -21.5t-5.5 -20.5q-3 -10 -10 -15l-2 -3q-2 -3 -8 -7q-5 -5 -10.5 -8.5t-11.5 -6.5q-11 -5 -23.5 -8.5t-24.5 -1.5h-7h-12q-22 2 -35 18l-5 7q-9 12 -12 26q-2 8 -2.5 17t-1.5 17q0 5 -2 15q-2 7 -1 11
q0 1 2 3q1 1 4 1q3 3 8 2.5t9 -0.5h10.5t10.5 -1q2 0 3 -1q1 0 3 -2q7 -8 7.5 -19t0.5 -21q0 -3 0.5 -5.5t0.5 -5.5q1 -3 5 -7q2 -3 7 -3.5t9 -0.5q8 0 12 1q2 1 4.5 2t4.5 2l2 1l3 2q4 4 5 8.5t2 9.5l3 21l1 25q-1 4 -1 7.5t-2 7.5q-1 3 -1 6t-1 6q-2 5 -6 10.5t-10 6.5
t-12 -0.5t-12 -1.5q-3 0 -4 3q-1 0 -3 2q-3 4 -4.5 8.5t-3.5 9.5t-4.5 8.5t-2.5 8.5q0 3 2 5l4 2q4 6 9 7q4 2 7 2q2 0 8 2l8 3q9 2 13 5l8 6l2 1l1 1l1 1l1 4q1 5 1.5 9t0.5 9q0 18 -3 36q-1 6 -2 12.5t-5 11.5t-12 7q-3 1 -7.5 1.5t-6.5 -1.5q-1 -1 -3 -1q-5 -2 -8 -5
q-7 -9 -7 -18q0 -4 -2 -12q2 -10 -5 -13q-4 -2 -7.5 -2t-8.5 -1l-10 -1l-7 -2l-10 -3q-6 -2 -9 -2q-5 0 -5 4t1 6l1 3v3v3q0 5 1 10.5t2 10.5l4 19q5 19 15 32q3 5 8 8l8 3q9 4 17 5q5 1 9.5 2t9.5 1l11 1h12z" />
    <glyph glyph-name="acute" unicode="&#xb4;" horiz-adv-x="245" 
d="M153 925q9 0 17 -3l9 -3q2 -1 3 -2t3 -2q4 -1 7.5 -2t5.5 -5q3 -5 1 -8.5t-4 -7.5l-6 -8q-7 -14 -15.5 -26t-16.5 -25l-17 -26q-4 -6 -7 -12.5t-8 -11.5q0 -5 -3 -8q-2 -2 -2 -2.5t-1 -2.5q-2 -6 -2 -9q0 -5 -5 -7q-8 -2 -14 0.5t-13 6.5l-4 2l-15 6l-11 4q-2 1 -3.5 1.5
t-3.5 2.5q-5 7 0 12.5t8 11.5q3 7 8 14t9.5 14t9.5 14q10 14 20 25.5t17 27.5q1 3 7 7q6 6 11 12.5t15 6.5v3z" />
    <glyph glyph-name="paragraph" unicode="&#xb6;" horiz-adv-x="505" 
d="M428 723q8 -1 11 -8.5t3 -13.5v-8v-3q0 -1 -2 -3q-1 -4 -1 -8v-8l1 -24v-6v-4v-8q0 -11 0.5 -22.5t-0.5 -22.5l-2 -24v-24v-50q0 -12 -0.5 -24t-1.5 -24t-1 -24v-24l1 -47v-24l-2 -22q-1 -12 -0.5 -24t0.5 -24q0 -11 0.5 -22.5t1.5 -22.5l2 -24l3 -21q3 -24 3 -48v-48
q0 -9 -0.5 -18t1.5 -18l7 -9q3 -4 0.5 -7.5t-6.5 -3.5t-7.5 -1.5t-6.5 -2.5q-5 -2 -9 -3t-9 -1q-15 -3 -31 -3l-15 -1q-4 0 -8.5 -0.5t-6.5 4.5q-4 8 -1 18l1 3v1l1 3v7v18l1 38l2 76q2 38 4 75t4 75l2 35v153v4v2q-1 13 -2 25.5t-1 25.5q0 12 0.5 24t0.5 24q0 8 -0.5 16.5
t-1.5 16.5q-36 0 -72 -3l-9 -1l3 -18q1 -5 1 -10.5t1 -10.5l2 -20q1 -11 1.5 -21t0.5 -21q0 -18 2.5 -37t4.5 -38q2 -20 2 -40.5t-1 -40.5q-1 -24 -0.5 -48t0.5 -48v-22t1 -22q1 -13 2 -25.5t1 -25.5q1 -25 2 -49.5t1 -49.5q0 -10 1 -20t1 -21v-2v-2l1 -7l1 -7q3 -3 3 -6
l2 -1q4 -2 4.5 -6t-2.5 -6q-3 -3 -11 -5l-5 -2l-16 -3q-9 -2 -17.5 -5.5t-17.5 -5.5t-13 4q-3 6 -5 14q-1 4 -1 12l-1 4q-1 5 -1 9v9v32q0 16 -1 31t-3 32q-4 35 -5 70t-1 70v7l-5 1l-10 1l-6 1h-21h-10.5t-10.5 1l-9 1h-2l-9 1q-5 1 -9.5 2t-9.5 3q-11 5 -17.5 14t-11.5 20
q-3 3 -7 9q-2 5 -3.5 9t-3.5 9q-10 39 -15 80q-2 20 -2.5 39t-0.5 39v41q0 10 1 19.5t3 19.5q1 5 1.5 10.5t2.5 10.5q1 4 5 12l5 7l3 4q14 19 32 31q11 8 22 12q-2 -1 -1 -1t3 1l8 3l10 4q6 2 12 2.5t12 1.5l22 4q7 2 13.5 2.5t13.5 1.5l16 1h-1q1 0 2 1q22 4 46 3
q5 0 10.5 -0.5t10.5 -0.5l25 4q11 2 22.5 4t22.5 4q6 1 12 1t12 1q5 1 10.5 1h10.5zM201 628q-6 0 -15 -3q-5 -2 -9 -2.5t-9 -2.5l-4 -1l-2 -1l-4 -3l-2 -1l-7 -6l-6 -6t-6 -7l-1 -2l-2 -4l-1 -1l-2 -11v-2l-1 -5l-2 -22q-1 -13 -1.5 -25.5t-2.5 -24.5l-1 -8v-2v-11
q0 -4 -0.5 -7t-1.5 -8v-5v-12t1 -12v-3l1 -4l3 -11q2 -6 3 -11.5t2 -11.5v-1l2 -3l6 -6l2 -2l2 -1q3 -2 9 -4l4 -1h2l21 -3q6 -1 12 -1h12l19 -1l2 1l-2 108l-3 100l-1 52z" />
    <glyph glyph-name="periodcentered" unicode="&#xb7;" horiz-adv-x="153" 
d="M76 432q5 1 9.5 1h9.5q13 0 17 -11q4 -9 4 -21v-12v-3v-4v-3l1 -8v-1q2 -8 1.5 -17.5t-8.5 -13.5q-7 -4 -20 -4q-4 -2 -8 -2h-9q-5 1 -9 2t-8 3q-17 9 -19 31q-1 6 -0.5 10t-0.5 9v7v5q0 5 -1 8q-2 4 -1 9.5t5 7.5q2 1 6 -1q2 6 6 7q5 2 8.5 1.5t7.5 -1.5z" />
    <glyph glyph-name="cedilla" unicode="&#xb8;" horiz-adv-x="270" 
d="M154 7q2 1 5 0t3 -4q0 -4 -1 -6l-1 -4l-2 -6l-1 -3q-2 -4 -2.5 -7.5t-2.5 -7.5l-4 -12q-1 -4 -2 -7t-3 -7q8 3 15.5 4t15.5 1q10 0 20 -2.5t17 -10.5q7 -7 9.5 -15.5t3.5 -17.5q2 -14 -1 -25v-1l-1 -5l-2 -8q-2 -5 -3.5 -9t-4.5 -8q-2 -4 -4.5 -7.5t-5.5 -6.5l-5 -3
q-6 -6 -19 -10q-8 -3 -16.5 -4t-16.5 -2t-16.5 -2t-16.5 1q-9 0 -16 3l-15 5l-8 2t-7 3l-5 4l-4 3l-2 1l-6 4t-3 6t3 6.5t6 4.5q2 2 4 3t4 3l5 3q2 2 4 3.5t4 3.5q3 5 9 1q5 -1 9 -4.5t9 -6.5q8 -5 21 -7q6 -2 11.5 -0.5t10.5 3.5q8 2 11 4q4 8 7 15t5 15q2 10 -3 16
q-2 3 -5 5h-2l-15 -1h-2q-2 -9 -9 -10q-5 -1 -9.5 -0.5t-9.5 0.5t-10.5 -0.5t-10.5 0.5q-6 1 -6 9v5v1l3 16l1 5l1 8l3 17l2 10v3l1 3l1 3l2 6l2 7q0 1 0.5 1.5t0.5 1.5q0 6 7 6q6 1 12 0.5t12 -0.5l8 1q2 1 3 1t3 1l3 1z" />
    <glyph glyph-name="uni00B9" unicode="&#xb9;" horiz-adv-x="211" 
d="M161 701q2 -1 4 -2.5t2 -3.5q1 -3 1.5 -5.5t0.5 -5.5q0 -4 0.5 -7.5t0.5 -7.5v-15q0 -8 -1 -12l-1 -3l1 -18q0 -11 -1 -22.5t-1 -22.5q0 -22 1 -43.5t0 -43.5q-1 -11 -2.5 -22.5t-1.5 -22.5q0 -8 -1 -12l-2 -9q-1 -5 -1.5 -9t-0.5 -9v-10.5t1 -10.5q2 -12 -1 -21
q-2 -5 -1.5 -9t-1.5 -9v-7l-1 -2v-4q0 -6 -9 -10q-4 -4 -9.5 -5.5t-9.5 -3.5q-10 -4 -17 -4q-4 0 -7.5 -0.5t-6.5 0.5q-4 0 -4 4q1 5 1 15l1 2q-1 4 -1 12l2 21q1 5 1.5 10t0.5 10v21v46q0 11 1 22t1 22q0 5 -0.5 11t0.5 11t1.5 10.5t0.5 10.5v42q0 8 1 17.5t-1 18.5
q-4 -2 -8 -4.5t-8 -4.5q-11 -7 -22.5 -12.5t-22.5 -11.5l-3 -1l-1 -1q-2 -2 -5 -1t-4 4t-1 9q-1 5 -1.5 10t-1.5 10q-2 11 -7 19q-1 1 -1 3q-1 3 0 6t5 4q3 1 5.5 2.5t4.5 3.5l13 8q7 5 14 8.5t14 8.5q4 2 7.5 3.5t7.5 3.5t7.5 3.5t7.5 2.5q5 2 8 0l11 4l12 3l8 3q8 3 16 2z
" />
    <glyph glyph-name="guillemotright" unicode="&#xbb;" horiz-adv-x="401" 
d="M235 160l-9 6q-3 2 -5 5l-11 8q-5 4 -10.5 8.5t-0.5 12.5l3 3l1 2q5 11 11 21t14 20q7 10 13.5 19t12.5 20q12 22 27 42l15 17l3 4q-5 7 -8.5 13.5t-7.5 13.5l-12 22l-7 9q-9 11 -16.5 23.5t-15.5 24.5q-4 5 -7 10.5t-7 10.5q-2 4 -4 7.5t-4 7.5l-1 1q-2 3 -4 4.5t-4 3.5
l-2 4l-1 2q-3 1 -3.5 4.5t1.5 5.5l3 3l1 2q5 5 7.5 10.5t4.5 10.5l10 22q2 4 6 3.5t6 -3.5l2 -4l4 -3q2 -1 2.5 -2t2.5 -2q3 -2 3 -3q3 -4 5 -8q0 -1 1.5 -3t-0.5 0l5 -5q5 -5 9 -11t9 -12q16 -19 27 -44l5 -7q6 -12 13 -28l3 -7l8 -10q5 -6 9.5 -12t9.5 -12q4 -5 7 -9.5
t5 -10.5q2 -2 2 -5q0 -5 1 -11t-2 -10l-6 -9q-4 -6 -6 -8l-2 -2q-2 -2 -3.5 -4.5t-3.5 -4.5q-4 -6 -7 -12.5t-7 -12.5l-15 -24q-8 -12 -15.5 -24.5t-15.5 -24.5q-4 -6 -7.5 -12t-8.5 -12q-4 -5 -7.5 -9.5t-6.5 -9.5q0 -2 -1 -3q-5 -4 -10.5 -9.5t-12.5 -1.5zM98 177
q-2 -2 -5.5 -1.5t-3.5 4.5l-2 2l-3 3l-7 6q-5 5 -9 8.5t-9 7.5q-4 3 -6.5 7t1.5 9l1 1q0 2 2 4l3 3l2 2l2 3l2 3q2 4 4 7.5t4 7.5q4 5 7.5 10.5t6.5 10.5t6.5 10t7.5 10q6 8 11.5 15.5t12.5 14.5l1 3q2 5 4.5 9t4.5 9l2 5l-6 6l-6 8q-3 4 -5 8.5t-4 9.5l-1 2l-1 1l-9 15
q-5 8 -9.5 15t-9.5 15q-8 14 -15 28.5t-14 29.5l-1 1q-1 1 -1.5 2t-1.5 2q-4 2 -6 4q-5 5 1 9l2 1q0 3 3 5q2 2 3 3.5t3 3.5l6 7q3 4 6.5 7t5.5 7q5 7 10 8q3 0 6.5 -3t5.5 -5v-3q5 -4 8.5 -8.5t6.5 -9.5q4 -5 7 -10.5t6 -10.5l14 -24t15 -23q16 -21 27 -49q3 -7 6.5 -13
t6.5 -13l3 -5l1 -2l1 -2l3 -3l1 -2q4 -4 5 -9.5t-1 -10.5q-2 -4 -3 -5l-5 -6l-1 -2l-1 -3q-5 -11 -11.5 -20t-13.5 -19q-6 -9 -11.5 -18t-10.5 -18q-6 -10 -12 -19t-12 -19t-12 -19t-14 -17z" />
    <glyph glyph-name="onequarter" unicode="&#xbc;" horiz-adv-x="591" 
d="M204 721q2 -1 4 -2.5t2 -3.5q1 -3 1.5 -5.5t0.5 -5.5q0 -4 0.5 -7.5t0.5 -7.5v-15q0 -8 -1 -12l-1 -3l1 -18q0 -11 -1 -22.5t-1 -22.5q0 -22 1 -43.5t0 -43.5q-1 -11 -2.5 -22.5t-1.5 -22.5q0 -8 -1 -12l-2 -9q-1 -5 -1.5 -9t-0.5 -9v-10.5t1 -10.5q2 -12 -1 -21
q-2 -5 -1.5 -9t-1.5 -9v-7l-1 -2v-4q0 -6 -9 -10q-4 -4 -9.5 -5.5t-9.5 -3.5q-10 -4 -17 -4q-4 0 -7.5 -0.5t-6.5 0.5q-4 0 -4 4q1 5 1 15l1 2q-1 4 -1 12l2 21q1 5 1.5 10t0.5 10v21v46q0 11 1 22t1 22q0 5 -0.5 11t0.5 11t1.5 10.5t0.5 10.5v42q0 8 1 17.5t-1 18.5
q-4 -2 -8 -4.5t-8 -4.5q-11 -7 -22.5 -12.5t-22.5 -11.5l-3 -1l-1 -1q-2 -2 -5 -1t-4 4t-1 9q-1 5 -1.5 10t-1.5 10q-2 11 -7 19q-1 1 -1 3q-1 3 0 6t5 4q3 1 5.5 2.5t4.5 3.5l13 8q7 5 14 8.5t14 8.5q4 2 7.5 3.5t7.5 3.5t7.5 3.5t7.5 2.5q5 2 8 0l11 4l12 3l8 3q8 3 16 2z
M478 706q4 1 8 -1q2 -1 3 -0.5t3 0.5q3 0 6 -0.5t6 -0.5q4 0 7 -1l6 -2l4 -1q6 0 8 1t6 1q3 0 5.5 -2.5t1.5 -5.5q-2 -4 -4 -14v-3l-1 -4q-2 -6 -4 -8l-2 -5l-4 -8l-1 -4q-4 -14 -12 -28l-32 -52q-6 -10 -12.5 -19t-13.5 -18l-27 -37q-4 -5 -7.5 -10.5t-8.5 -10.5l-4 -4
l-43 -68q-6 -10 -12 -19.5t-13 -18.5l-13 -19l-6 -9l-5 -6l-2 -3q-7 -9 -13 -18l-12 -18q-5 -7 -9.5 -13.5t-8.5 -13.5q-6 -11 -11.5 -23t-10.5 -24l-9 -21q-4 -8 -8.5 -15t-9.5 -15q-6 -9 -12.5 -17.5t-12.5 -17.5t-11.5 -18.5t-10.5 -19.5l-23 -41l-12 -22q-2 -5 -4.5 -10
t-5.5 -10l-1 -3q-3 -5 -5 -9.5t-6 -7.5q-6 -6 -13 -1q-3 3 -6 5.5t-5 5.5q-5 2 -5 6l-4 5q-6 8 -10 11q-8 6 -11 9l-2 3q-7 5 -3 13q5 9 9.5 18t9.5 17l21 33q3 5 6 9t5 9q4 8 7 12l3 4q5 8 10.5 15.5t10.5 15.5q8 11 15 23l14 24l28 54l12 25q3 5 6 11t7 11t7.5 10t8.5 10
l5 6l2 2l6 9l11 18q6 11 12.5 20t14.5 18l8 10l3 3l2 3l13 17q7 9 12.5 18.5t11.5 19.5q12 20 25 38.5t27 37.5q10 14 19 27.5t16 29.5l13 28l6 13l2 5l1 3q0 5 2.5 10l3.5 7q6 8 9 11q2 2 5 4.5t6 3.5zM422 373q10 0 21 -3q5 -1 9.5 -1.5t9.5 1.5t7.5 -3t-1.5 -8l-1 -2
q-5 -8 -8 -15t-6 -15t-7 -14.5t-8 -14.5q-8 -16 -14.5 -32.5t-14.5 -32.5q-8 -17 -16 -33t-16 -33q-2 -5 -5 -9.5t-6 -9.5l6 1l21 1l22 1v19q0 5 0.5 11t-1.5 11q-4 10 0 17q2 4 6 4l15 1l7 2h4.5t4.5 -1h3h1q3 1 9 1q2 0 5.5 -1.5t3.5 -4.5q2 -2 2 -4q1 -5 1.5 -10.5
t0.5 -10.5v-21v-14h15q6 0 9 -1l3 -1q6 0 8 -1q4 -2 4 -6t-2 -7q-2 -6 -2 -8q-1 -2 -1 -5t-1 -5l-3 -10q0 -3 -2 -9q-4 -8 -11 -5h-2l-5 1l-11 3l-3 -17q-1 -5 -0.5 -11t-1.5 -12v-1q1 -27 0 -55q0 -5 -5 -8q-1 -4 -4.5 -4.5t-6.5 -0.5q-7 -2 -13 0h-5q-3 -1 -9 -1
q-8 -2 -12 0q-3 1 -3 5l1 6q-2 6 -2 9v9v1v23q0 26 3 55h-18h-11.5t-10.5 1h-2l-22 -2q-5 0 -8.5 -0.5t-7.5 -0.5q-8 -1 -15 1t-15 0t-12 2q-3 4 -1 11q-3 4 -1 11q1 5 3 9t4 9l8 17q3 7 4.5 14t6.5 13l1 2l2 4q2 5 4 9t4 9t4 9l4 8t5 7t5 7q5 9 8.5 18t8.5 18t8.5 18.5
t8.5 18.5q5 8 8.5 17t8.5 17q2 5 4.5 9t5.5 9l12 11q2 2 5 2z" />
    <glyph glyph-name="onehalf" unicode="&#xbd;" horiz-adv-x="591" 
d="M204 721q2 -1 4 -2.5t2 -3.5q1 -3 1.5 -5.5t0.5 -5.5q0 -4 0.5 -7.5t0.5 -7.5v-15q0 -8 -1 -12l-1 -3l1 -18q0 -11 -1 -22.5t-1 -22.5q0 -22 1 -43.5t0 -43.5q-1 -11 -2.5 -22.5t-1.5 -22.5q0 -8 -1 -12l-2 -9q-1 -5 -1.5 -9t-0.5 -9v-10.5t1 -10.5q2 -12 -1 -21
q-2 -5 -1.5 -9t-1.5 -9v-7l-1 -2v-4q0 -6 -9 -10q-4 -4 -9.5 -5.5t-9.5 -3.5q-10 -4 -17 -4q-4 0 -7.5 -0.5t-6.5 0.5q-4 0 -4 4q1 5 1 15l1 2q-1 4 -1 12l2 21q1 5 1.5 10t0.5 10v21v46q0 11 1 22t1 22q0 5 -0.5 11t0.5 11t1.5 10.5t0.5 10.5v42q0 8 1 17.5t-1 18.5
q-4 -2 -8 -4.5t-8 -4.5q-11 -7 -22.5 -12.5t-22.5 -11.5l-3 -1l-1 -1q-2 -2 -5 -1t-4 4t-1 9q-1 5 -1.5 10t-1.5 10q-2 11 -7 19q-1 1 -1 3q-1 3 0 6t5 4q3 1 5.5 2.5t4.5 3.5l13 8q7 5 14 8.5t14 8.5q4 2 7.5 3.5t7.5 3.5t7.5 3.5t7.5 2.5q5 2 8 0l11 4l12 3l8 3q8 3 16 2z
M478 706q4 1 8 -1q2 -1 3 -0.5t3 0.5q3 0 6 -0.5t6 -0.5q4 0 7 -1l6 -2l4 -1q6 0 8 1t6 1q3 0 5.5 -2.5t1.5 -5.5q-2 -4 -4 -14v-3l-1 -4q-2 -6 -4 -8l-2 -5l-4 -8l-1 -4q-4 -14 -12 -28l-32 -52q-6 -10 -12.5 -19t-13.5 -18l-27 -37q-4 -5 -7.5 -10.5t-8.5 -10.5l-4 -4
l-43 -68q-6 -10 -12 -19.5t-13 -18.5l-13 -19l-6 -9l-5 -6l-2 -3q-7 -9 -13 -18l-12 -18q-5 -7 -9.5 -13.5t-8.5 -13.5q-6 -11 -11.5 -23t-10.5 -24l-9 -21q-4 -8 -8.5 -15t-9.5 -15q-6 -9 -12.5 -17.5t-12.5 -17.5t-11.5 -18.5t-10.5 -19.5l-23 -41l-12 -22q-2 -5 -4.5 -10
t-5.5 -10l-1 -3q-3 -5 -5 -9.5t-6 -7.5q-6 -6 -13 -1q-3 3 -6 5.5t-5 5.5q-5 2 -5 6l-4 5q-6 8 -10 11q-8 6 -11 9l-2 3q-7 5 -3 13q5 9 9.5 18t9.5 17l21 33q3 5 6 9t5 9q4 8 7 12l3 4q5 8 10.5 15.5t10.5 15.5q8 11 15 23l14 24l28 54l12 25q3 5 6 11t7 11t7.5 10t8.5 10
l5 6l2 2l6 9l11 18q6 11 12.5 20t14.5 18l8 10l3 3l2 3l13 17q7 9 12.5 18.5t11.5 19.5q12 20 25 38.5t27 37.5q10 14 19 27.5t16 29.5l13 28l6 13l2 5l1 3q0 5 2.5 10l3.5 7q6 8 9 11q2 2 5 4.5t6 3.5zM452 355q11 0 22 -2t20 -8q16 -11 26 -32q7 -16 9 -35q1 -10 0.5 -20
t-4.5 -19q-4 -10 -6 -14l-6 -9l-6 -12q-2 -4 -4.5 -7.5t-5.5 -6.5q0 -7 -8 -13l2 1l-1 -2l-1 -2l-8 -11l-15 -20l-31 -34l-3 -3l-1 -1l-5 -9q-2 -5 -5 -8.5t-5 -8.5q-2 -6 -2.5 -12.5t-1.5 -12.5q-1 -2 -1 -4.5t-1 -4.5q9 1 18 -0.5t19 -3.5l5 -1h3h11h24q10 0 10 -9
q1 -1 1 -3q-1 -7 -3 -13.5t-4 -13.5q-1 -5 -2 -10.5t-6 -8.5q-2 -2 -6 -1.5t-7 1.5l-4 1h-4q-3 0 -9 2h-3l-7 1h-1l-6 1h-2h-1l-10 1h-24h-1l-4 -1l-5 -1l-13 -1h-2q-6 -1 -12 -1.5t-12 0.5q-7 0 -7 7q0 3 -1 6t-1 6q-1 8 0 15.5t1 15.5v20t1 20q2 21 11 36q5 9 11 16l5 9
q14 18 30.5 33t32.5 32l8 9l5 6q2 4 4.5 8t4.5 8q3 11 4 21.5t1 21.5t-1 16l-2 2q-1 0 -1 1q-1 1 0 1l-2 2l-6 4q1 0 -1.5 0.5t-1.5 0.5l-29 2q-1 -1 -5 -3l-2 -3q-3 -6 -4 -15q-1 -4 -0.5 -7.5t-0.5 -7.5q1 -3 1.5 -6.5t-1.5 -5.5q-4 -6 -13 -4q-9 1 -18.5 1.5t-19.5 0.5
q-2 0 -4 2q-7 2 -10 9q-3 8 -1 16t5 16q4 11 11 23q6 11 14.5 20.5t19.5 14.5l6 2q8 4 17.5 5.5t18.5 1.5h5z" />
    <glyph glyph-name="threequarters" unicode="&#xbe;" horiz-adv-x="591" 
d="M139 719q11 1 21 -1t19 -8q5 -3 9.5 -7t7.5 -9l3 -5l3 -3q4 -4 6 -8.5t4 -9.5q5 -13 6 -23q0 -8 1 -12q2 -8 2 -12q0 -5 0.5 -11t-0.5 -11q-1 -6 -3.5 -11t-4.5 -10l-3 -8q-2 -6 -4 -11.5t-7 -10.5l-5 -6l4 -4q6 -6 9 -14q2 -5 4 -10.5t4 -10.5q3 -3 5 -10q1 -5 2.5 -10
t2.5 -10q1 -6 1.5 -12.5t0.5 -12.5t-0.5 -12t-1.5 -11q-2 -11 -3.5 -21.5t-5.5 -20.5q-3 -10 -10 -15l-2 -3q-2 -3 -8 -7q-5 -5 -10.5 -8.5t-11.5 -6.5q-11 -5 -23.5 -8.5t-24.5 -1.5h-7h-12q-22 2 -35 18l-5 7q-9 12 -12 26q-2 8 -2.5 17t-1.5 17q0 5 -2 15q-2 7 -1 11
q0 1 2 3q1 1 4 1q3 3 8 2.5t9 -0.5h10.5t10.5 -1q2 0 3 -1q1 0 3 -2q7 -8 7.5 -19t0.5 -21q0 -3 0.5 -5.5t0.5 -5.5q1 -3 5 -7q2 -3 7 -3.5t9 -0.5q8 0 12 1q2 1 4.5 2t4.5 2l2 1l3 2q4 4 5 8.5t2 9.5l3 21l1 25q-1 4 -1 7.5t-2 7.5q-1 3 -1 6t-1 6q-2 5 -6 10.5t-10 6.5
t-12 -0.5t-12 -1.5q-3 0 -4 3q-1 0 -3 2q-3 4 -4.5 8.5t-3.5 9.5t-4.5 8.5t-2.5 8.5q0 3 2 5l4 2q4 6 9 7q4 2 7 2q2 0 8 2l8 3q9 2 13 5l8 6l2 1l1 1l1 1l1 4q1 5 1.5 9t0.5 9q0 18 -3 36q-1 6 -2 12.5t-5 11.5t-12 7q-3 1 -7.5 1.5t-6.5 -1.5q-1 -1 -3 -1q-5 -2 -8 -5
q-7 -9 -7 -18q0 -4 -2 -12q2 -10 -5 -13q-4 -2 -7.5 -2t-8.5 -1l-10 -1l-7 -2l-10 -3q-6 -2 -9 -2q-5 0 -5 4t1 6l1 3v3v3q0 5 1 10.5t2 10.5l4 19q5 19 15 32q3 5 8 8l8 3q9 4 17 5q5 1 9.5 2t9.5 1l11 1h12zM468 711q4 1 8 -1q2 -1 3 -0.5t3 0.5q3 0 6 -0.5t6 -0.5
q4 0 7 -1l6 -2l4 -1q6 0 8 1t6 1q3 0 5.5 -2.5t1.5 -5.5q-2 -4 -4 -14v-3l-1 -4q-2 -6 -4 -8l-2 -5l-4 -8l-1 -4q-4 -14 -12 -28l-32 -52q-6 -10 -12.5 -19t-13.5 -18l-27 -37q-4 -5 -7.5 -10.5t-8.5 -10.5l-4 -4l-43 -68q-6 -10 -12 -19.5t-13 -18.5l-13 -19l-6 -9l-5 -6
l-2 -3q-7 -9 -13 -18l-12 -18q-5 -7 -9.5 -13.5t-8.5 -13.5q-6 -11 -11.5 -23t-10.5 -24l-9 -21q-4 -8 -8.5 -15t-9.5 -15q-6 -9 -12.5 -17.5t-12.5 -17.5t-11.5 -18.5t-10.5 -19.5l-23 -41l-12 -22q-2 -5 -4.5 -10t-5.5 -10l-1 -3q-3 -5 -5 -9.5t-6 -7.5q-6 -6 -13 -1
q-3 3 -6 5.5t-5 5.5q-5 2 -5 6l-4 5q-6 8 -10 11q-8 6 -11 9l-2 3q-7 5 -3 13q5 9 9.5 18t9.5 17l21 33q3 5 6 9t5 9q4 8 7 12l3 4q5 8 10.5 15.5t10.5 15.5q8 11 15 23l14 24l28 54l12 25q3 5 6 11t7 11t7.5 10t8.5 10l5 6l2 2l6 9l11 18q6 11 12.5 20t14.5 18l8 10l3 3
l2 3l13 17q7 9 12.5 18.5t11.5 19.5q12 20 25 38.5t27 37.5q10 14 19 27.5t16 29.5l13 28l6 13l2 5l1 3q0 5 2.5 10l3.5 7q6 8 9 11q2 2 5 4.5t6 3.5zM412 378q10 0 21 -3q5 -1 9.5 -1.5t9.5 1.5t7.5 -3t-1.5 -8l-1 -2q-5 -8 -8 -15t-6 -15t-7 -14.5t-8 -14.5
q-8 -16 -14.5 -32.5t-14.5 -32.5q-8 -17 -16 -33t-16 -33q-2 -5 -5 -9.5t-6 -9.5l6 1l21 1l22 1v19q0 5 0.5 11t-1.5 11q-4 10 0 17q2 4 6 4l15 1l7 2h4.5t4.5 -1h3h1q3 1 9 1q2 0 5.5 -1.5t3.5 -4.5q2 -2 2 -4q1 -5 1.5 -10.5t0.5 -10.5v-21v-14h15q6 0 9 -1l3 -1q6 0 8 -1
q4 -2 4 -6t-2 -7q-2 -6 -2 -8q-1 -2 -1 -5t-1 -5l-3 -10q0 -3 -2 -9q-4 -8 -11 -5h-2l-5 1l-11 3l-3 -17q-1 -5 -0.5 -11t-1.5 -12v-1q1 -27 0 -55q0 -5 -5 -8q-1 -4 -4.5 -4.5t-6.5 -0.5q-7 -2 -13 0h-5q-3 -1 -9 -1q-8 -2 -12 0q-3 1 -3 5l1 6q-2 6 -2 9v9v1v23q0 26 3 55
h-18h-11.5t-10.5 1h-2l-22 -2q-5 0 -8.5 -0.5t-7.5 -0.5q-8 -1 -15 1t-15 0t-12 2q-3 4 -1 11q-3 4 -1 11q1 5 3 9t4 9l8 17q3 7 4.5 14t6.5 13l1 2l2 4q2 5 4 9t4 9t4 9l4 8t5 7t5 7q5 9 8.5 18t8.5 18t8.5 18.5t8.5 18.5q5 8 8.5 17t8.5 17q2 5 4.5 9t5.5 9l12 11q2 2 5 2
z" />
    <glyph glyph-name="questiondown" unicode="&#xbf;" horiz-adv-x="301" 
d="M197 436q-9 -2 -20 -2t-19 7q-7 2 -9 4q-4 7 -6 17q-2 9 -1 19.5t6 18.5q5 10 15 13l7 1q7 4 15 5.5t16 1.5l9 -1q5 1 9.5 1.5t9.5 -1.5q8 -3 9.5 -10t2.5 -14q2 -8 3.5 -17t1.5 -17q0 -2 -2 -4q0 -5 -3 -9t-7 -5.5t-8 -3.5q-5 -2 -9.5 -2.5t-9.5 -1.5h-5h-5zM115 -215
q-22 2 -43 9.5t-35 27.5q-13 19 -14 40q-1 12 -0.5 24t0.5 24v49.5t1 49.5q1 23 3 45.5t10 43.5q4 11 9 21t13 18q14 15 32 26q5 3 10.5 6t10.5 5l9 3h1l7 3l2 2l7 7l2 2l2 2l1 2l1 3q2 6 4 16q3 19 6.5 37.5t3.5 38.5q0 10 -0.5 19.5t-1.5 19.5l-1 21q0 6 0.5 11t2.5 10
q7 14 21 20t28 6h-7l5 1l6 2q13 3 25 3q9 0 14 -6q3 -4 2 -8q0 -14 -0.5 -28.5t-1.5 -28.5q-1 -13 -1 -25.5t-3 -25.5q-2 -7 -3.5 -13.5t-2.5 -13.5t-1.5 -13.5t-2.5 -13.5q-6 -25 -15 -47l-1 -1q-2 -15 -10 -28q-11 -18 -32 -31q-9 -5 -18.5 -8t-19.5 -7l-3 -1l-4 -2l-3 -2
l-2 -2l-2 -2l-1 -1l-2 -2l-1 -2l-2 -4l-2 -4l-1 -2l-3 -8q-2 -5 -4 -9.5t-4 -9.5l-6 -16l-1 -16l-1 -6v-7v-15t1 -15l3 -32l3 -32q1 -8 1.5 -15.5t2.5 -15.5q4 -13 13 -17q5 -3 11 -5l12 -4h7.5t8.5 1h3l7 2l2 1l2 1l3 3l4 7l2 4l3 8q2 5 2.5 10t1.5 10v21l1 27v13l-1 3
l-1 5q-2 6 2 13q-2 12 4 23q3 5 5 5t8 -4h2l6 -1q4 -1 7.5 -2t7.5 -2q8 -2 15.5 -5.5t15.5 -3.5t6 -8q1 -1 1 -3q1 -10 2 -19.5t-1 -19.5l-3 -36q-1 -9 -1 -18t-2 -18q-1 -5 -2 -9t-3 -9l-3 -9l-2 -5q-2 -3 -2 -4t1 1q-6 -19 -22 -28.5t-33 -14.5q-40 -11 -78 -7z" />
    <glyph glyph-name="Agrave" unicode="&#xc0;" 
d="M168 919q5 -4 5 -9t3 -10l1 -2q2 -4 5 -7t5 -7t4 -7.5t4 -7.5l8 -14q5 -8 8.5 -16.5t7.5 -16.5l7.5 -15t8.5 -15l2 -2q2 -4 4.5 -7t0.5 -8q-2 -4 -6.5 -5.5t-8.5 -2.5q-8 -2 -15.5 -4t-14.5 -6l-7 -4q-3 -2 -6 1q-2 2 -3.5 5t-3.5 5t-3 5t-3 5q-3 3 -1 5l-2 5l-6 15
q-3 8 -5.5 15t-6.5 14q-4 8 -8.5 15.5t-9.5 15.5l-16 26q-4 2 -5 5l-4 4q-4 3 -2 8t7.5 8t10.5 5l24 9q5 2 12 4t12 -3zM205 707q8 3 17.5 1.5t14.5 -10.5q3 -6 3.5 -13t1.5 -14v-2l2 -8q3 -11 6.5 -21t6.5 -21l12 -45q3 -11 6 -22.5t5 -22.5q7 -48 12 -96q2 -12 3 -24
t3 -24t4.5 -24t5.5 -24l6 -24t5 -24l9 -46q2 -11 4.5 -22.5t5.5 -22.5l5 -20q1 -5 2 -9t2 -9q2 -10 4.5 -20t4.5 -20l10 -43l9 -43l5 -16l1 -6v-2l1 -2l1 -5l1 -4v-1q0 -5 -5.5 -8.5t-10.5 -4.5q-10 -5 -20 -5q-8 -4 -14 -4q-5 0 -9.5 0.5t-8.5 3.5q-8 0 -10 5l-1 1l-1 2
q-1 1 -1.5 2t-1.5 2q-4 4 -6 14l-6 25q-2 7 -4 13.5t-4 13.5q-3 10 -5.5 19.5t-4.5 19.5l-3 12h-16l-25 1q-27 1 -54 6l-12 2t-12 3l-24 6h2l-5 1q-3 -20 -7.5 -38.5t-9.5 -38.5q-3 -11 -3 -21v-8v-6l1 -6q2 -5 2 -8t-3 -7q-2 -2 -7.5 -4.5t-10.5 -1.5q-8 0 -12 1
q-5 0 -10.5 1t-11.5 1h-17h-9t-9 2q-3 1 -3 5q1 5 1.5 9.5t1.5 9.5v2l2 5v2l2 13q0 6 1 9q1 4 1.5 8t1.5 8q0 2 3 5l1 4q0 6 1 9l3 8l6 23l14 76q3 19 5.5 37.5t5.5 37.5q1 5 1.5 9t2.5 9l4 16q2 9 3.5 18t3.5 18q8 47 17 93t20 93l5 23q2 5 4 10.5t4 10.5l9 26l1 4q1 5 2 9
t2 9l3 16q1 2 1 4.5t1 4.5l3 8l3 17q1 3 2 7.5t1 6.5q-1 4 0.5 8t1.5 9t5.5 7t8.5 2q4 0 6 -1h3h3l5 1q5 2 9 3t9 2zM183 484l-1 -2l-6 -28l-2 -7q-3 -18 -7 -35.5t-6 -35.5l-3 -19q-1 -5 -2 -9t-1 -9l-3 -36q-1 -8 -2.5 -16.5t-3.5 -16.5l-6 -39l-4 -18h3l23 -4
q10 -2 19.5 -5.5t19.5 -5.5l5 -1h1l9 -1l24 -1l11 -1q-6 32 -9 67q-1 11 -1 23t-2 23q-3 11 -6 22.5t-5 22.5q-2 6 -2.5 12t-2.5 12l-5 22q-5 24 -6 48l-2 25l-1 21q-1 6 -1.5 11.5t-0.5 11.5q0 5 -0.5 10.5t-1.5 10.5t-2 9t-2 9v2l-10 -37l-7 -23z" />
    <glyph glyph-name="Aacute" unicode="&#xc1;" 
d="M271 925q9 0 17 -3l9 -3q2 -1 3 -2t3 -2q4 -1 7.5 -2t5.5 -5q3 -5 1 -8.5t-4 -7.5l-6 -8q-7 -14 -15.5 -26t-16.5 -25l-17 -26q-4 -6 -7 -12.5t-8 -11.5q0 -5 -3 -8q-2 -2 -2 -2.5t-1 -2.5q-2 -6 -2 -9q0 -5 -5 -7q-8 -2 -14 0.5t-13 6.5l-4 2l-15 6l-11 4q-2 1 -3.5 1.5
t-3.5 2.5q-5 7 0 12.5t8 11.5q3 7 8 14t9.5 14t9.5 14q10 14 20 25.5t17 27.5q1 3 7 7q6 6 11 12.5t15 6.5v3zM208 716q8 3 17.5 1.5t14.5 -10.5q3 -6 3.5 -13t1.5 -14v-2l2 -8q3 -11 6.5 -21t6.5 -21l12 -45q3 -11 6 -22.5t5 -22.5q7 -48 12 -96q2 -12 3 -24t3 -24t4.5 -24
t5.5 -24l6 -24t5 -24l9 -46q2 -11 4.5 -22.5t5.5 -22.5l5 -20q1 -5 2 -9t2 -9q2 -10 4.5 -20t4.5 -20l10 -43l9 -43l5 -16l1 -6v-2l1 -2l1 -5l1 -4v-1q0 -5 -5.5 -8.5t-10.5 -4.5q-10 -5 -20 -5q-8 -4 -14 -4q-5 0 -9.5 0.5t-8.5 3.5q-8 0 -10 5l-1 1l-1 2q-1 1 -1.5 2
t-1.5 2q-4 4 -6 14l-6 25q-2 7 -4 13.5t-4 13.5q-3 10 -5.5 19.5t-4.5 19.5l-3 12h-16l-25 1q-27 1 -54 6l-12 2t-12 3l-24 6h2l-5 1q-3 -20 -7.5 -38.5t-9.5 -38.5q-3 -11 -3 -21v-8v-6l1 -6q2 -5 2 -8t-3 -7q-2 -2 -7.5 -4.5t-10.5 -1.5q-8 0 -12 1q-5 0 -10.5 1t-11.5 1
h-17h-9t-9 2q-3 1 -3 5q1 5 1.5 9.5t1.5 9.5v2l2 5v2l2 13q0 6 1 9q1 4 1.5 8t1.5 8q0 2 3 5l1 4q0 6 1 9l3 8l6 23l14 76q3 19 5.5 37.5t5.5 37.5q1 5 1.5 9t2.5 9l4 16q2 9 3.5 18t3.5 18q8 47 17 93t20 93l5 23q2 5 4 10.5t4 10.5l9 26l1 4q1 5 2 9t2 9l3 16q1 2 1 4.5
t1 4.5l3 8l3 17q1 3 2 7.5t1 6.5q-1 4 0.5 8t1.5 9t5.5 7t8.5 2q4 0 6 -1h3h3l5 1q5 2 9 3t9 2zM186 493l-1 -2l-6 -28l-2 -7q-3 -18 -7 -35.5t-6 -35.5l-3 -19q-1 -5 -2 -9t-1 -9l-3 -36q-1 -8 -2.5 -16.5t-3.5 -16.5l-6 -39l-4 -18h3l23 -4q10 -2 19.5 -5.5t19.5 -5.5
l5 -1h1l9 -1l24 -1l11 -1q-6 32 -9 67q-1 11 -1 23t-2 23q-3 11 -6 22.5t-5 22.5q-2 6 -2.5 12t-2.5 12l-5 22q-5 24 -6 48l-2 25l-1 21q-1 6 -1.5 11.5t-0.5 11.5q0 5 -0.5 10.5t-1.5 10.5t-2 9t-2 9v2l-10 -37l-7 -23z" />
    <glyph glyph-name="Acircumflex" unicode="&#xc2;" 
d="M211 917q3 0 5 -3q3 0 5 -3q2 -2 3 -4q2 -3 4.5 -5.5l4.5 -4.5t3.5 -4.5t3.5 -4.5q3 -2 3 -4l4 -5q4 -3 10 -11l15 -21q7 -10 12.5 -20t8.5 -21l6 -10q2 -5 0.5 -9t-3.5 -8l-9 -15q-5 -10 -11 -15q-5 -3 -9 3q-2 3 -3 6t-3 6q-1 3 -5 7l-2 2l-2 1q-5 5 -8 10.5t-7 11.5
l-13 20q-4 7 -8.5 13t-9.5 13l-2 3l-1 -1l-7 -10q-2 -3 -4 -9q-5 -13 -9.5 -25.5t-11.5 -23.5l-2 -2l-1 -1l-3 -9q-2 -4 -4 -7.5t-7 -4.5q-2 0 -3.5 1t-3.5 2l-9 6q-5 3 -9.5 4.5t-8.5 5.5l-1 2q-4 2 -4 6q-1 5 1.5 9.5t4.5 9.5q5 9 9.5 18.5t9.5 18.5t9.5 18t9.5 18
q2 5 4 9.5t5 9.5l4 7q2 5 5.5 9t5.5 8q1 3 5 3h13t12 1zM206 712q8 3 17.5 1.5t14.5 -10.5q3 -6 3.5 -13t1.5 -14v-2l2 -8q3 -11 6.5 -21t6.5 -21l12 -45q3 -11 6 -22.5t5 -22.5q7 -48 12 -96q2 -12 3 -24t3 -24t4.5 -24t5.5 -24l6 -24t5 -24l9 -46q2 -11 4.5 -22.5
t5.5 -22.5l5 -20q1 -5 2 -9t2 -9q2 -10 4.5 -20t4.5 -20l10 -43l9 -43l5 -16l1 -6v-2l1 -2l1 -5l1 -4v-1q0 -5 -5.5 -8.5t-10.5 -4.5q-10 -5 -20 -5q-8 -4 -14 -4q-5 0 -9.5 0.5t-8.5 3.5q-8 0 -10 5l-1 1l-1 2q-1 1 -1.5 2t-1.5 2q-4 4 -6 14l-6 25q-2 7 -4 13.5t-4 13.5
q-3 10 -5.5 19.5t-4.5 19.5l-3 12h-16l-25 1q-27 1 -54 6l-12 2t-12 3l-24 6h2l-5 1q-3 -20 -7.5 -38.5t-9.5 -38.5q-3 -11 -3 -21v-8v-6l1 -6q2 -5 2 -8t-3 -7q-2 -2 -7.5 -4.5t-10.5 -1.5q-8 0 -12 1q-5 0 -10.5 1t-11.5 1h-17h-9t-9 2q-3 1 -3 5q1 5 1.5 9.5t1.5 9.5v2
l2 5v2l2 13q0 6 1 9q1 4 1.5 8t1.5 8q0 2 3 5l1 4q0 6 1 9l3 8l6 23l14 76q3 19 5.5 37.5t5.5 37.5q1 5 1.5 9t2.5 9l4 16q2 9 3.5 18t3.5 18q8 47 17 93t20 93l5 23q2 5 4 10.5t4 10.5l9 26l1 4q1 5 2 9t2 9l3 16q1 2 1 4.5t1 4.5l3 8l3 17q1 3 2 7.5t1 6.5q-1 4 0.5 8
t1.5 9t5.5 7t8.5 2q4 0 6 -1h3h3l5 1q5 2 9 3t9 2zM184 489l-1 -2l-6 -28l-2 -7q-3 -18 -7 -35.5t-6 -35.5l-3 -19q-1 -5 -2 -9t-1 -9l-3 -36q-1 -8 -2.5 -16.5t-3.5 -16.5l-6 -39l-4 -18h3l23 -4q10 -2 19.5 -5.5t19.5 -5.5l5 -1h1l9 -1l24 -1l11 -1q-6 32 -9 67
q-1 11 -1 23t-2 23q-3 11 -6 22.5t-5 22.5q-2 6 -2.5 12t-2.5 12l-5 22q-5 24 -6 48l-2 25l-1 21q-1 6 -1.5 11.5t-0.5 11.5q0 5 -0.5 10.5t-1.5 10.5t-2 9t-2 9v2l-10 -37l-7 -23z" />
    <glyph glyph-name="Atilde" unicode="&#xc3;" 
d="M325 881q7 0 7 -6q1 -3 1 -6t1 -6q2 -8 2 -12q1 -12 0 -24q-1 -5 -1.5 -10.5t-2.5 -10.5q0 -4 -2 -12q-3 -10 -9.5 -17.5t-14.5 -13.5q-21 -14 -44 -13q-10 1 -20 3.5t-18 7.5q-15 9 -26 27t-26 27l-3 2q-8 2 -15 -1q-5 -2 -8 -5l-1 -2q-5 -11 -6 -22l-1 -11l-1 -3v-8
q0 -9 -8 -9h-15t-15 -1q-6 0 -15.5 0.5t-11.5 9.5q-2 7 -0.5 13.5t2.5 13.5v6.5t1 6.5q2 12 7 22q12 20 27 31q10 7 20 11q6 3 12 3l8 2q8 2 15.5 2t15.5 -2q4 0 12 -2q13 -4 27 -13q7 -5 13 -10.5t10 -13.5t5 -12l1 -1q3 -6 8 -11q9 -2 14 2q2 1 4 5v5q0 5 -0.5 11t1.5 11
v6q0 7 2 10q2 2 5 3.5t5 3.5q5 2 10.5 4t10.5 4t10.5 4t11.5 2zM204 712q8 3 17.5 1.5t14.5 -10.5q3 -6 3.5 -13t1.5 -14v-2l2 -8q3 -11 6.5 -21t6.5 -21l12 -45q3 -11 6 -22.5t5 -22.5q7 -48 12 -96q2 -12 3 -24t3 -24t4.5 -24t5.5 -24l6 -24t5 -24l9 -46q2 -11 4.5 -22.5
t5.5 -22.5l5 -20q1 -5 2 -9t2 -9q2 -10 4.5 -20t4.5 -20l10 -43l9 -43l5 -16l1 -6v-2l1 -2l1 -5l1 -4v-1q0 -5 -5.5 -8.5t-10.5 -4.5q-10 -5 -20 -5q-8 -4 -14 -4q-5 0 -9.5 0.5t-8.5 3.5q-8 0 -10 5l-1 1l-1 2q-1 1 -1.5 2t-1.5 2q-4 4 -6 14l-6 25q-2 7 -4 13.5t-4 13.5
q-3 10 -5.5 19.5t-4.5 19.5l-3 12h-16l-25 1q-27 1 -54 6l-12 2t-12 3l-24 6h2l-5 1q-3 -20 -7.5 -38.5t-9.5 -38.5q-3 -11 -3 -21v-8v-6l1 -6q2 -5 2 -8t-3 -7q-2 -2 -7.5 -4.5t-10.5 -1.5q-8 0 -12 1q-5 0 -10.5 1t-11.5 1h-17h-9t-9 2q-3 1 -3 5q1 5 1.5 9.5t1.5 9.5v2
l2 5v2l2 13q0 6 1 9q1 4 1.5 8t1.5 8q0 2 3 5l1 4q0 6 1 9l3 8l6 23l14 76q3 19 5.5 37.5t5.5 37.5q1 5 1.5 9t2.5 9l4 16q2 9 3.5 18t3.5 18q8 47 17 93t20 93l5 23q2 5 4 10.5t4 10.5l9 26l1 4q1 5 2 9t2 9l3 16q1 2 1 4.5t1 4.5l3 8l3 17q1 3 2 7.5t1 6.5q-1 4 0.5 8
t1.5 9t5.5 7t8.5 2q4 0 6 -1h3h3l5 1q5 2 9 3t9 2zM182 489l-1 -2l-6 -28l-2 -7q-3 -18 -7 -35.5t-6 -35.5l-3 -19q-1 -5 -2 -9t-1 -9l-3 -36q-1 -8 -2.5 -16.5t-3.5 -16.5l-6 -39l-4 -18h3l23 -4q10 -2 19.5 -5.5t19.5 -5.5l5 -1h1l9 -1l24 -1l11 -1q-6 32 -9 67
q-1 11 -1 23t-2 23q-3 11 -6 22.5t-5 22.5q-2 6 -2.5 12t-2.5 12l-5 22q-5 24 -6 48l-2 25l-1 21q-1 6 -1.5 11.5t-0.5 11.5q0 5 -0.5 10.5t-1.5 10.5t-2 9t-2 9v2l-10 -37l-7 -23z" />
    <glyph glyph-name="Adieresis" unicode="&#xc4;" 
d="M128 872q4 0 7 -1t7 -2l3 -1q13 1 28 -2q11 -2 16.5 -11t6.5 -20q0 -5 -0.5 -10.5t-1.5 -10.5l-1 -13q-2 -10 -6 -18t-15 -10q-8 -2 -14 -2q-5 -3 -13.5 -1.5t-13.5 3.5q-7 2 -14 4.5t-10 10.5q-3 7 -3 14.5t-1 14.5v12.5t1 12.5q2 8 4.5 15t8.5 12q4 3 11 3zM301 858
q10 0 13 -5q8 -5 11 -14t4 -18q1 -7 1.5 -14t-0.5 -14q-2 -8 -6.5 -16.5t-14.5 -6.5l-3 1q-5 -2 -10 -2.5t-10 -0.5h-11q-3 0 -6.5 -0.5t-6.5 1.5q-9 5 -10.5 15.5t-0.5 19.5v6v3v9.5t-1 8.5v8v2q-1 5 -0.5 9t5.5 7q2 1 6 1l1 1q13 6 27 1h4q3 0 6 0.5t6 0.5zM204 709
q8 3 17.5 1.5t14.5 -10.5q3 -6 3.5 -13t1.5 -14v-2l2 -8q3 -11 6.5 -21t6.5 -21l12 -45q3 -11 6 -22.5t5 -22.5q7 -48 12 -96q2 -12 3 -24t3 -24t4.5 -24t5.5 -24l6 -24t5 -24l9 -46q2 -11 4.5 -22.5t5.5 -22.5l5 -20q1 -5 2 -9t2 -9q2 -10 4.5 -20t4.5 -20l10 -43l9 -43
l5 -16l1 -6v-2l1 -2l1 -5l1 -4v-1q0 -5 -5.5 -8.5t-10.5 -4.5q-10 -5 -20 -5q-8 -4 -14 -4q-5 0 -9.5 0.5t-8.5 3.5q-8 0 -10 5l-1 1l-1 2q-1 1 -1.5 2t-1.5 2q-4 4 -6 14l-6 25q-2 7 -4 13.5t-4 13.5q-3 10 -5.5 19.5t-4.5 19.5l-3 12h-16l-25 1q-27 1 -54 6l-12 2t-12 3
l-24 6h2l-5 1q-3 -20 -7.5 -38.5t-9.5 -38.5q-3 -11 -3 -21v-8v-6l1 -6q2 -5 2 -8t-3 -7q-2 -2 -7.5 -4.5t-10.5 -1.5q-8 0 -12 1q-5 0 -10.5 1t-11.5 1h-17h-9t-9 2q-3 1 -3 5q1 5 1.5 9.5t1.5 9.5v2l2 5v2l2 13q0 6 1 9q1 4 1.5 8t1.5 8q0 2 3 5l1 4q0 6 1 9l3 8l6 23
l14 76q3 19 5.5 37.5t5.5 37.5q1 5 1.5 9t2.5 9l4 16q2 9 3.5 18t3.5 18q8 47 17 93t20 93l5 23q2 5 4 10.5t4 10.5l9 26l1 4q1 5 2 9t2 9l3 16q1 2 1 4.5t1 4.5l3 8l3 17q1 3 2 7.5t1 6.5q-1 4 0.5 8t1.5 9t5.5 7t8.5 2q4 0 6 -1h3h3l5 1q5 2 9 3t9 2zM182 486l-1 -2
l-6 -28l-2 -7q-3 -18 -7 -35.5t-6 -35.5l-3 -19q-1 -5 -2 -9t-1 -9l-3 -36q-1 -8 -2.5 -16.5t-3.5 -16.5l-6 -39l-4 -18h3l23 -4q10 -2 19.5 -5.5t19.5 -5.5l5 -1h1l9 -1l24 -1l11 -1q-6 32 -9 67q-1 11 -1 23t-2 23q-3 11 -6 22.5t-5 22.5q-2 6 -2.5 12t-2.5 12l-5 22
q-5 24 -6 48l-2 25l-1 21q-1 6 -1.5 11.5t-0.5 11.5q0 5 -0.5 10.5t-1.5 10.5t-2 9t-2 9v2l-10 -37l-7 -23z" />
    <glyph glyph-name="Aring" unicode="&#xc5;" 
d="M220 910q6 0 10.5 -0.5t9.5 -1.5q11 -2 21 -6t15 -15q9 -19 8 -40t-6 -41t-19.5 -31.5t-34.5 -13.5q-16 -2 -31 0q-5 1 -11 1.5t-11 2.5q-8 1 -15.5 5t-13.5 10q-5 7 -7 17q-1 5 -1.5 9t-0.5 9q0 11 1 21t2 21q0 12 5 20l6 7l1 2l1 2l4 5l2 3q2 2 8 6q18 10 42 8h15z
M196 867q-2 -6 -3 -13t-3 -13q-2 -8 -2 -14.5v-14.5q0 -5 2 -9.5t7 -6.5q4 -2 10 -2l7 -1l4 2l1 1l2 1l4 2l2 2l1 1q0 1 0.5 2t-0.5 -1q1 2 2 4.5t2 4.5q1 4 1 7.5t1 7.5v16q0 3 0.5 6.5t-1.5 6.5q-4 6 -8 10t-8 4.5t-9 0.5l-7 1l-4 -2zM209 713q8 3 17.5 1.5t14.5 -10.5
q3 -6 3.5 -13t1.5 -14v-2l2 -8q3 -11 6.5 -21t6.5 -21l12 -45q3 -11 6 -22.5t5 -22.5q7 -48 12 -96q2 -12 3 -24t3 -24t4.5 -24t5.5 -24l6 -24t5 -24l9 -46q2 -11 4.5 -22.5t5.5 -22.5l5 -20q1 -5 2 -9t2 -9q2 -10 4.5 -20t4.5 -20l10 -43l9 -43l5 -16l1 -6v-2l1 -2l1 -5
l1 -4v-1q0 -5 -5.5 -8.5t-10.5 -4.5q-10 -5 -20 -5q-8 -4 -14 -4q-5 0 -9.5 0.5t-8.5 3.5q-8 0 -10 5l-1 1l-1 2q-1 1 -1.5 2t-1.5 2q-4 4 -6 14l-6 25q-2 7 -4 13.5t-4 13.5q-3 10 -5.5 19.5t-4.5 19.5l-3 12h-16l-25 1q-27 1 -54 6l-12 2t-12 3l-24 6h2l-5 1
q-3 -20 -7.5 -38.5t-9.5 -38.5q-3 -11 -3 -21v-8v-6l1 -6q2 -5 2 -8t-3 -7q-2 -2 -7.5 -4.5t-10.5 -1.5q-8 0 -12 1q-5 0 -10.5 1t-11.5 1h-17h-9t-9 2q-3 1 -3 5q1 5 1.5 9.5t1.5 9.5v2l2 5v2l2 13q0 6 1 9q1 4 1.5 8t1.5 8q0 2 3 5l1 4q0 6 1 9l3 8l6 23l14 76
q3 19 5.5 37.5t5.5 37.5q1 5 1.5 9t2.5 9l4 16q2 9 3.5 18t3.5 18q8 47 17 93t20 93l5 23q2 5 4 10.5t4 10.5l9 26l1 4q1 5 2 9t2 9l3 16q1 2 1 4.5t1 4.5l3 8l3 17q1 3 2 7.5t1 6.5q-1 4 0.5 8t1.5 9t5.5 7t8.5 2q4 0 6 -1h3h3l5 1q5 2 9 3t9 2zM187 490l-1 -2l-6 -28
l-2 -7q-3 -18 -7 -35.5t-6 -35.5l-3 -19q-1 -5 -2 -9t-1 -9l-3 -36q-1 -8 -2.5 -16.5t-3.5 -16.5l-6 -39l-4 -18h3l23 -4q10 -2 19.5 -5.5t19.5 -5.5l5 -1h1l9 -1l24 -1l11 -1q-6 32 -9 67q-1 11 -1 23t-2 23q-3 11 -6 22.5t-5 22.5q-2 6 -2.5 12t-2.5 12l-5 22q-5 24 -6 48
l-2 25l-1 21q-1 6 -1.5 11.5t-0.5 11.5q0 5 -0.5 10.5t-1.5 10.5t-2 9t-2 9v2l-10 -37l-7 -23z" />
    <glyph glyph-name="AE" unicode="&#xc6;" horiz-adv-x="528" 
d="M510 638q2 -9 -2 -14q-2 -4 -6.5 -5.5t-9.5 -2.5h-4l-5 -1q-3 0 -11 -2l-3 -1q-5 -1 -15 -1q-4 -1 -8 -1h-9h-1l-5 -1h-3h-9h-1q-6 -2 -12.5 -2h-13.5q-9 0 -18 0.5t-18 1.5h-2l-5 -2l-3 -5l-6 -11l1 -15q3 -50 3 -99q0 -24 -1 -48t-1 -48v-12l4 -1q8 -2 15 -2t15 -1
t15 -1t15 -1q5 0 15 -2h6q2 0 2.5 -0.5t2.5 -0.5l4 -1q8 0 10 -6q1 -2 0.5 -3.5t-0.5 -3.5q1 -6 2 -11.5t1 -11.5v-21q0 -4 -4 -6.5t-6 -4.5q-10 -3 -18 -2l-6 1h-7l-8 1q3 -1 0 0t-4 1h-9t-8 1t-6.5 1.5t-6.5 0.5q-7 0 -13.5 0.5t-12.5 0.5v-11l2 -55q0 -8 0.5 -15t0.5 -15
v3l2 -24v-27v-3l4 -28q2 -10 4 -19.5t3 -19.5q0 -5 0.5 -9t0.5 -9l17 -3h8l12 -1l60 1h20q8 0 12 -1l3 -1h2q13 0 13 -10v-22q0 -4 1 -7.5t1 -7.5t-4 -6.5t-7 -4.5l-9 -3q-5 -2 -9.5 -3t-8.5 -2q-11 -1 -22.5 -0.5t-22.5 1.5l-51 1q-5 0 -9 0.5t-9 0.5q1 0 -3 -0.5t-2 -0.5
l-8 -1q-15 -3 -28 1q-8 -2 -15 0q-6 0 -10 4q-11 2 -11 11q0 17 -1 34.5t-2 34.5l-2 37v9t-1 9l-2 17l-1 9h-6h-1l-13 -2l-14 -1q-5 -1 -10 -1.5t-10 -0.5h-17h-42h-20q-5 0 -15 2q-3 -8 -6 -15t-5 -15q-3 -11 -5.5 -21.5t-4.5 -21.5q-1 -6 -1 -12t-2 -12q-1 -5 -2 -10.5
t-3 -10.5l-5 -15l-1 -4l-4 -15q-1 -3 -2 -6.5t-3 -5.5q-3 -2 -6 -2h-7q-10 2 -15 2q-4 1 -7.5 1t-7.5 1q-5 1 -9 1.5t-9 2.5l-4 1l-4 2q-5 4 -1 8q0 4 4 12l1 2l1 3l5 17l12 35q6 18 10.5 36.5t9.5 36.5q5 19 10 37.5t9 38.5q2 10 4 19.5t4 19.5l4 18t5 18q4 11 8.5 22
t8.5 22l15 46q8 23 17.5 45.5t19.5 45.5q5 11 9.5 21.5t8.5 21.5t8.5 22t8.5 22l15 44v3l2 3l2 8q0 5 2 13q1 4 1.5 8t2.5 7q4 6 9 2q1 0 4 1t5 1h13h1q8 0 11 -4l2 1v3l1 5q-4 3 1 8q3 3 6 4.5t6 3.5q6 5 15 3q5 1 10.5 1t10.5 1l5 1h4q13 2 25.5 2t25.5 1l31 2h15t14 1
t14 1h13l14 1h9h2q5 2 10.5 2t7.5 -4l1 -1q3 -1 4 -4q3 -6 3 -12v-15q0 -4 -0.5 -8t0.5 -8zM265 224q-2 18 -2 36v36q0 24 -1 48t-1 48q0 11 0.5 22.5t1.5 22.5q1 9 1 18t1 18l-1 6q0 8 -1 16.5t-1 16.5v15l1 15q0 4 0.5 7.5t0.5 7.5v12q-4 -20 -10 -38.5t-12 -37.5l-13 -39
q-3 -10 -6 -19.5t-7 -19.5q-7 -16 -13 -35l-12 -40q-4 -11 -8 -22.5t-9 -22.5l-18 -42q-3 -7 -5.5 -13.5t-4.5 -13.5l15 1q10 1 19.5 1.5t19.5 0.5h9t9 -1l17 -1h9t9 -1z" />
    <glyph glyph-name="Ccedilla" unicode="&#xc7;" horiz-adv-x="348" 
d="M332 535q0 -3 -0.5 -6t-0.5 -6q0 -7 -5.5 -11t-11.5 -6q-7 -2 -13 -4t-13 -1q-3 0 -9 2q-5 -1 -15 -1h-7h-3h-1q-2 0 -5.5 1t-4.5 4q-1 5 1.5 10t3.5 10l1 13v10v11l-2 12l-3 17q-2 2 -2 4q-1 3 -2 7t-3 7l-8 12q-7 9 -14 13q-4 2 -7.5 3t-8.5 3q-4 1 -11 1q-5 -1 -15 -5
l-3 -1q-3 -1 -5 -5l-2 -3q-2 -3 -2.5 -7t-1.5 -8l-2 -17q0 -5 -1 -10.5t-2 -10.5l-3 -16v-3q0 -5 -1 -10l-2 -10t-1 -10.5v-10.5t-0.5 -10.5t-0.5 -10.5q-1 -6 -1 -12v-12l-1 -9v-18q0 -6 -0.5 -12t-1.5 -12q-1 -5 -1 -10.5v-10.5q-1 -23 -2 -45t-4 -45q-2 -11 -2 -23v-24
t-0.5 -24t-0.5 -24q0 -11 0.5 -22.5t-0.5 -22.5t-0.5 -21.5t2.5 -21.5q1 -3 1 -6.5t1 -6.5l3 -7l6 -9l3 -3l3 -3l4 -4l2 -2l5 -3l2 -1l7 -3l3 -1l9 -3h9h4q8 2 12 4q3 1 9 5l4 12q1 4 1 7.5t1 7.5q2 10 4 15q2 6 1 11q-1 3 2 5.5t8 4.5q4 3 11 3q4 0 7.5 -1t7.5 -1h6h6h12
q5 0 9.5 -2.5t4.5 -7.5l-3 -43v-9t-1 -9t-1 -9t-1 -9q-2 -11 -5.5 -21t-12.5 -18l-1 -1l-3 -2l-4 -3l-10 -8q-5 -3 -10 -5.5t-10 -4.5q-13 -5 -23 -6v-1q-2 -4 -2.5 -7.5t-2.5 -7.5l-4 -12q-1 -4 -2 -7t-3 -7q8 3 15.5 4t15.5 1q10 0 20 -2.5t17 -10.5q7 -7 9.5 -15.5
t3.5 -17.5q2 -14 -1 -25v-1l-1 -5l-2 -8q-2 -5 -3.5 -9t-4.5 -8q-2 -4 -4.5 -7.5t-5.5 -6.5l-5 -3q-6 -6 -19 -10q-8 -3 -16.5 -4t-16.5 -2t-16.5 -2t-16.5 1q-9 0 -16 3l-15 5l-8 2t-7 3l-5 4l-4 3l-2 1l-6 4t-3 6t3 6.5t6 4.5q2 2 4 3t4 3l5 3q2 2 4 3.5t4 3.5q3 5 9 1
q5 -1 9 -4.5t9 -6.5q8 -5 21 -7q6 -2 11.5 -0.5t10.5 3.5q8 2 11 4q4 8 7 15t5 15q2 10 -3 16q-2 3 -5 5h-2l-15 -1h-2q-2 -9 -9 -10q-5 -1 -9.5 -0.5t-9.5 0.5t-10.5 -0.5t-10.5 0.5q-6 1 -6 9v5v1l3 16l1 5l1 8l3 17l2 10v3l1 3l1 3l2 7l-21 3q-9 2 -17 4.5t-15 7.5
q-6 0 -14 4q-4 2 -7 5l-6 6q-4 4 -7 8t-6 9t-5.5 9.5t-4.5 9.5t-2 10.5v10.5l-2 22q-1 6 -1.5 12t-2.5 12q-1 5 -1 10.5v10.5t-0.5 10.5t-0.5 10.5l-1 20l-1 22q-1 6 -1 12v12q0 11 1 22.5t2 22.5q1 8 1 15t1 15l3 24v7v10q-3 22 -3 46q0 11 0.5 22.5t1.5 22.5t0 23
q-1 5 -1 10.5v10.5l2 34q1 10 2 19.5t2 19.5q1 11 2 21.5t5 21.5q2 5 4 10.5t4 10.5t3.5 10.5t3.5 10.5q5 10 10.5 19.5t13.5 17.5l1 1q3 6 9 12q16 16 38 19l5 2q4 1 3 1l1 1q13 5 25 5h4q-3 -1 4 0l5 1q8 0 12 -1q6 -1 11.5 -2t10.5 -3l21 -7l9 -3q2 -1 4 -1.5t4 -2.5
q7 -6 14 -18q4 -6 7 -12.5t6 -13.5q4 -9 6 -18q2 -4 4 -7.5t4 -7.5q2 -7 3 -14l2 -14l4 -28q1 -6 1.5 -12t0.5 -13z" />
    <glyph glyph-name="Egrave" unicode="&#xc8;" horiz-adv-x="316" 
d="M128 920q5 -4 5 -9t3 -10l1 -2q2 -4 5 -7t5 -7t4 -7.5t4 -7.5l8 -14q5 -8 8.5 -16.5t7.5 -16.5l7.5 -15t8.5 -15l2 -2q2 -4 4.5 -7t0.5 -8q-2 -4 -6.5 -5.5t-8.5 -2.5q-8 -2 -15.5 -4t-14.5 -6l-7 -4q-3 -2 -6 1q-2 2 -3.5 5t-3.5 5t-3 5t-3 5q-3 3 -1 5l-2 5l-6 15
q-3 8 -5.5 15t-6.5 14q-4 8 -8.5 15.5t-9.5 15.5l-16 26q-4 2 -5 5l-4 4q-4 3 -2 8t7.5 8t10.5 5l24 9q5 2 12 4t12 -3zM269 688q5 2 10.5 2t7.5 -4l1 -1q3 -1 4 -4q3 -6 3 -12v-15q0 -4 -0.5 -8t0.5 -8q2 -9 -2 -14q-2 -4 -6.5 -5.5t-9.5 -2.5h-4l-5 -1q-3 0 -11 -2l-3 -1
q-5 -1 -15 -1q-4 -1 -8 -1h-9h-1l-5 -1h-3h-9h-1q-6 -2 -12.5 -2h-13.5q-9 0 -18 0.5t-18 1.5h-2l-5 -2l-3 -5l-6 -11l1 -15q3 -50 3 -99q0 -24 -1 -48t-1 -48v-12l4 -1q8 -2 15 -2t15 -1t15 -1t15 -1q5 0 15 -2h6q2 0 2.5 -0.5t2.5 -0.5l4 -1q8 0 10 -6q1 -2 0.5 -3.5
t-0.5 -3.5q1 -6 2 -11.5t1 -11.5v-21q0 -4 -4 -6.5t-6 -4.5q-10 -3 -18 -2l-6 1h-7l-8 1q3 -1 0 0t-4 1h-9t-8 1t-6.5 1.5t-6.5 0.5q-7 0 -13.5 0.5t-12.5 0.5v-11l2 -55q0 -8 0.5 -15t0.5 -15v3l2 -24v-27v-3l4 -28q2 -10 4 -19.5t3 -19.5q0 -5 0.5 -9t0.5 -9l17 -3h8
l12 -1l60 1h20q8 0 12 -1l3 -1h2q13 0 13 -10v-22q0 -4 1 -7.5t1 -7.5t-4 -6.5t-7 -4.5l-9 -3q-5 -2 -9.5 -3t-8.5 -2q-11 -1 -22.5 -0.5t-22.5 1.5l-51 1q-5 0 -9 0.5t-9 0.5q1 0 -3 -0.5t-2 -0.5l-8 -1q-15 -3 -28 1q-8 -2 -15 0q-6 0 -10 4q-11 2 -11 11q0 17 -1 34.5
t-2 34.5l-2 37v9t-1 9l-2 17q-2 18 -4 36.5t-4 37.5t-2.5 37.5t-0.5 37.5q0 24 -1 48t-1 48q0 11 0.5 22.5t1.5 22.5q1 9 1 18t1 18l-1 6q0 8 -1 16.5t-1 16.5v15l1 15q0 4 0.5 7.5t0.5 7.5v18v18t1 18v15q0 3 0.5 6.5t0.5 6.5l-1 7q0 2 -0.5 3.5t-0.5 3.5l1 5q-4 3 1 8
q3 3 6 4.5t6 3.5q6 5 15 3q5 1 10.5 1t10.5 1l5 1h4q13 2 25.5 2t25.5 1l31 2h15t14 1t14 1h13l14 1h9z" />
    <glyph glyph-name="Eacute" unicode="&#xc9;" horiz-adv-x="316" 
d="M231 926q9 0 17 -3l9 -3q2 -1 3 -2t3 -2q4 -1 7.5 -2t5.5 -5q3 -5 1 -8.5t-4 -7.5l-6 -8q-7 -14 -15.5 -26t-16.5 -25l-17 -26q-4 -6 -7 -12.5t-8 -11.5q0 -5 -3 -8q-2 -2 -2 -2.5t-1 -2.5q-2 -6 -2 -9q0 -5 -5 -7q-8 -2 -14 0.5t-13 6.5l-4 2l-15 6l-11 4q-2 1 -3.5 1.5
t-3.5 2.5q-5 7 0 12.5t8 11.5q3 7 8 14t9.5 14t9.5 14q10 14 20 25.5t17 27.5q1 3 7 7q6 6 11 12.5t15 6.5v3zM272 696q5 2 10.5 2t7.5 -4l1 -1q3 -1 4 -4q3 -6 3 -12v-15q0 -4 -0.5 -8t0.5 -8q2 -9 -2 -14q-2 -4 -6.5 -5.5t-9.5 -2.5h-4l-5 -1q-3 0 -11 -2l-3 -1
q-5 -1 -15 -1q-4 -1 -8 -1h-9h-1l-5 -1h-3h-9h-1q-6 -2 -12.5 -2h-13.5q-9 0 -18 0.5t-18 1.5h-2l-5 -2l-3 -5l-6 -11l1 -15q3 -50 3 -99q0 -24 -1 -48t-1 -48v-12l4 -1q8 -2 15 -2t15 -1t15 -1t15 -1q5 0 15 -2h6q2 0 2.5 -0.5t2.5 -0.5l4 -1q8 0 10 -6q1 -2 0.5 -3.5
t-0.5 -3.5q1 -6 2 -11.5t1 -11.5v-21q0 -4 -4 -6.5t-6 -4.5q-10 -3 -18 -2l-6 1h-7l-8 1q3 -1 0 0t-4 1h-9t-8 1t-6.5 1.5t-6.5 0.5q-7 0 -13.5 0.5t-12.5 0.5v-11l2 -55q0 -8 0.5 -15t0.5 -15v3l2 -24v-27v-3l4 -28q2 -10 4 -19.5t3 -19.5q0 -5 0.5 -9t0.5 -9l17 -3h8
l12 -1l60 1h20q8 0 12 -1l3 -1h2q13 0 13 -10v-22q0 -4 1 -7.5t1 -7.5t-4 -6.5t-7 -4.5l-9 -3q-5 -2 -9.5 -3t-8.5 -2q-11 -1 -22.5 -0.5t-22.5 1.5l-51 1q-5 0 -9 0.5t-9 0.5q1 0 -3 -0.5t-2 -0.5l-8 -1q-15 -3 -28 1q-8 -2 -15 0q-6 0 -10 4q-11 2 -11 11q0 17 -1 34.5
t-2 34.5l-2 37v9t-1 9l-2 17q-2 18 -4 36.5t-4 37.5t-2.5 37.5t-0.5 37.5q0 24 -1 48t-1 48q0 11 0.5 22.5t1.5 22.5q1 9 1 18t1 18l-1 6q0 8 -1 16.5t-1 16.5v15l1 15q0 4 0.5 7.5t0.5 7.5v18v18t1 18v15q0 3 0.5 6.5t0.5 6.5l-1 7q0 2 -0.5 3.5t-0.5 3.5l1 5q-4 3 1 8
q3 3 6 4.5t6 3.5q6 5 15 3q5 1 10.5 1t10.5 1l5 1h4q13 2 25.5 2t25.5 1l31 2h15t14 1t14 1h13l14 1h9z" />
    <glyph glyph-name="Ecircumflex" unicode="&#xca;" horiz-adv-x="316" 
d="M171 918q3 0 5 -3q3 0 5 -3q2 -2 3 -4q2 -3 4.5 -5.5l4.5 -4.5t3.5 -4.5t3.5 -4.5q3 -2 3 -4l4 -5q4 -3 10 -11l15 -21q7 -10 12.5 -20t8.5 -21l6 -10q2 -5 0.5 -9t-3.5 -8l-9 -15q-5 -10 -11 -15q-5 -3 -9 3q-2 3 -3 6t-3 6q-1 3 -5 7l-2 2l-2 1q-5 5 -8 10.5t-7 11.5
l-13 20q-4 7 -8.5 13t-9.5 13l-2 3l-1 -1l-7 -10q-2 -3 -4 -9q-5 -13 -9.5 -25.5t-11.5 -23.5l-2 -2l-1 -1l-3 -9q-2 -4 -4 -7.5t-7 -4.5q-2 0 -3.5 1t-3.5 2l-9 6q-5 3 -9.5 4.5t-8.5 5.5l-1 2q-4 2 -4 6q-1 5 1.5 9.5t4.5 9.5q5 9 9.5 18.5t9.5 18.5t9.5 18t9.5 18
q2 5 4 9.5t5 9.5l4 7q2 5 5.5 9t5.5 8q1 3 5 3h13t12 1zM270 693q5 2 10.5 2t7.5 -4l1 -1q3 -1 4 -4q3 -6 3 -12v-15q0 -4 -0.5 -8t0.5 -8q2 -9 -2 -14q-2 -4 -6.5 -5.5t-9.5 -2.5h-4l-5 -1q-3 0 -11 -2l-3 -1q-5 -1 -15 -1q-4 -1 -8 -1h-9h-1l-5 -1h-3h-9h-1
q-6 -2 -12.5 -2h-13.5q-9 0 -18 0.5t-18 1.5h-2l-5 -2l-3 -5l-6 -11l1 -15q3 -50 3 -99q0 -24 -1 -48t-1 -48v-12l4 -1q8 -2 15 -2t15 -1t15 -1t15 -1q5 0 15 -2h6q2 0 2.5 -0.5t2.5 -0.5l4 -1q8 0 10 -6q1 -2 0.5 -3.5t-0.5 -3.5q1 -6 2 -11.5t1 -11.5v-21q0 -4 -4 -6.5
t-6 -4.5q-10 -3 -18 -2l-6 1h-7l-8 1q3 -1 0 0t-4 1h-9t-8 1t-6.5 1.5t-6.5 0.5q-7 0 -13.5 0.5t-12.5 0.5v-11l2 -55q0 -8 0.5 -15t0.5 -15v3l2 -24v-27v-3l4 -28q2 -10 4 -19.5t3 -19.5q0 -5 0.5 -9t0.5 -9l17 -3h8l12 -1l60 1h20q8 0 12 -1l3 -1h2q13 0 13 -10v-22
q0 -4 1 -7.5t1 -7.5t-4 -6.5t-7 -4.5l-9 -3q-5 -2 -9.5 -3t-8.5 -2q-11 -1 -22.5 -0.5t-22.5 1.5l-51 1q-5 0 -9 0.5t-9 0.5q1 0 -3 -0.5t-2 -0.5l-8 -1q-15 -3 -28 1q-8 -2 -15 0q-6 0 -10 4q-11 2 -11 11q0 17 -1 34.5t-2 34.5l-2 37v9t-1 9l-2 17q-2 18 -4 36.5t-4 37.5
t-2.5 37.5t-0.5 37.5q0 24 -1 48t-1 48q0 11 0.5 22.5t1.5 22.5q1 9 1 18t1 18l-1 6q0 8 -1 16.5t-1 16.5v15l1 15q0 4 0.5 7.5t0.5 7.5v18v18t1 18v15q0 3 0.5 6.5t0.5 6.5l-1 7q0 2 -0.5 3.5t-0.5 3.5l1 5q-4 3 1 8q3 3 6 4.5t6 3.5q6 5 15 3q5 1 10.5 1t10.5 1l5 1h4
q13 2 25.5 2t25.5 1l31 2h15t14 1t14 1h13l14 1h9z" />
    <glyph glyph-name="Edieresis" unicode="&#xcb;" horiz-adv-x="316" 
d="M87 873q4 0 7 -1t7 -2l3 -1q13 1 28 -2q11 -2 16.5 -11t6.5 -20q0 -5 -0.5 -10.5t-1.5 -10.5l-1 -13q-2 -10 -6 -18t-15 -10q-8 -2 -14 -2q-5 -3 -13.5 -1.5t-13.5 3.5q-7 2 -14 4.5t-10 10.5q-3 7 -3 14.5t-1 14.5v12.5t1 12.5q2 8 4.5 15t8.5 12q4 3 11 3zM260 859
q10 0 13 -5q8 -5 11 -14t4 -18q1 -7 1.5 -14t-0.5 -14q-2 -8 -6.5 -16.5t-14.5 -6.5l-3 1q-5 -2 -10 -2.5t-10 -0.5h-11q-3 0 -6.5 -0.5t-6.5 1.5q-9 5 -10.5 15.5t-0.5 19.5v6v3v9.5t-1 8.5v8v2q-1 5 -0.5 9t5.5 7q2 1 6 1l1 1q13 6 27 1h4q3 0 6 0.5t6 0.5zM267 690
q5 2 10.5 2t7.5 -4l1 -1q3 -1 4 -4q3 -6 3 -12v-15q0 -4 -0.5 -8t0.5 -8q2 -9 -2 -14q-2 -4 -6.5 -5.5t-9.5 -2.5h-4l-5 -1q-3 0 -11 -2l-3 -1q-5 -1 -15 -1q-4 -1 -8 -1h-9h-1l-5 -1h-3h-9h-1q-6 -2 -12.5 -2h-13.5q-9 0 -18 0.5t-18 1.5h-2l-5 -2l-3 -5l-6 -11l1 -15
q3 -50 3 -99q0 -24 -1 -48t-1 -48v-12l4 -1q8 -2 15 -2t15 -1t15 -1t15 -1q5 0 15 -2h6q2 0 2.5 -0.5t2.5 -0.5l4 -1q8 0 10 -6q1 -2 0.5 -3.5t-0.5 -3.5q1 -6 2 -11.5t1 -11.5v-21q0 -4 -4 -6.5t-6 -4.5q-10 -3 -18 -2l-6 1h-7l-8 1q3 -1 0 0t-4 1h-9t-8 1t-6.5 1.5
t-6.5 0.5q-7 0 -13.5 0.5t-12.5 0.5v-11l2 -55q0 -8 0.5 -15t0.5 -15v3l2 -24v-27v-3l4 -28q2 -10 4 -19.5t3 -19.5q0 -5 0.5 -9t0.5 -9l17 -3h8l12 -1l60 1h20q8 0 12 -1l3 -1h2q13 0 13 -10v-22q0 -4 1 -7.5t1 -7.5t-4 -6.5t-7 -4.5l-9 -3q-5 -2 -9.5 -3t-8.5 -2
q-11 -1 -22.5 -0.5t-22.5 1.5l-51 1q-5 0 -9 0.5t-9 0.5q1 0 -3 -0.5t-2 -0.5l-8 -1q-15 -3 -28 1q-8 -2 -15 0q-6 0 -10 4q-11 2 -11 11q0 17 -1 34.5t-2 34.5l-2 37v9t-1 9l-2 17q-2 18 -4 36.5t-4 37.5t-2.5 37.5t-0.5 37.5q0 24 -1 48t-1 48q0 11 0.5 22.5t1.5 22.5
q1 9 1 18t1 18l-1 6q0 8 -1 16.5t-1 16.5v15l1 15q0 4 0.5 7.5t0.5 7.5v18v18t1 18v15q0 3 0.5 6.5t0.5 6.5l-1 7q0 2 -0.5 3.5t-0.5 3.5l1 5q-4 3 1 8q3 3 6 4.5t6 3.5q6 5 15 3q5 1 10.5 1t10.5 1l5 1h4q13 2 25.5 2t25.5 1l31 2h15t14 1t14 1h13l14 1h9z" />
    <glyph glyph-name="Igrave" unicode="&#xcc;" horiz-adv-x="220" 
d="M54 918q5 -4 5 -9t3 -10l1 -2q2 -4 5 -7t5 -7t4 -7.5t4 -7.5l8 -14q5 -8 8.5 -16.5t7.5 -16.5l7.5 -15t8.5 -15l2 -2q2 -4 4.5 -7t0.5 -8q-2 -4 -6.5 -5.5t-8.5 -2.5q-8 -2 -15.5 -4t-14.5 -6l-7 -4q-3 -2 -6 1q-2 2 -3.5 5t-3.5 5t-3 5t-3 5q-3 3 -1 5l-2 5l-6 15
q-3 8 -5.5 15t-6.5 14q-4 8 -8.5 15.5t-9.5 15.5l-16 26q-4 2 -5 5l-4 4q-4 3 -2 8t7.5 8t10.5 5l24 9q5 2 12 4t12 -3zM121 696q3 1 8.5 2t10 1t8.5 -2.5t4 -8.5q1 -10 1 -20.5t-2 -20.5q0 -5 -2 -15q0 -8 0.5 -15t0.5 -15q0 -12 0.5 -24t-0.5 -25q-1 -11 -1 -23v-23
q0 -5 -0.5 -10.5t-1.5 -11.5v-24q0 -11 -0.5 -21.5t-0.5 -21.5q0 -9 1.5 -18t2.5 -18v-37q1 -8 1.5 -14.5t0.5 -13.5v-90q0 -30 -0.5 -59.5t0.5 -59.5q0 -3 0.5 -6t1.5 -7q1 -3 1 -6.5t1 -7.5q0 -5 0.5 -9t0.5 -9q1 -5 1 -9.5v-9.5q0 -4 0.5 -8t0.5 -8q2 -8 2 -13
q3 -4 1 -11q-3 -11 -15.5 -16t-23.5 -4q-3 0 -6 0.5t-5 0.5h-1q-2 1 -6 1h-7q-12 -2 -18 1q-2 0 -3 -0.5t-3 -0.5q-5 0 -9 1.5t-4 7.5q0 1 -1 1q-2 4 0 9q0 3 2 7q0 2 0.5 3t0.5 2q0 5 1 7q0 5 -0.5 9.5t0.5 9.5q3 18 3 37q1 19 1 38v39q-1 39 0 79q0 9 0.5 18.5t1.5 18.5
q1 10 0.5 19.5t-0.5 19.5q1 5 1 11v11t-1 10.5t-1 10.5q-2 12 -1.5 24t0.5 24q1 6 1 12.5t1 12.5t2 11.5t2 11.5q1 23 0 47l-2 48t-3 47q-1 13 -3 24.5t-5 23.5q-2 5 -2 11t-1 11q-1 2 -1 3t-1 3q0 4 -1 4q-4 3 -2.5 6t5.5 5q1 1 2.5 1.5t3.5 1.5q1 2 3 3t3 2q5 2 11 1.5
t11 -0.5h10q1 -1 3 -1t3.5 0.5t3.5 0.5z" />
    <glyph glyph-name="Iacute" unicode="&#xcd;" horiz-adv-x="220" 
d="M127 920q7 0 15 -3l8 -3q2 -1 3 -2t3 -1q3 -1 6.5 -2t5.5 -4q3 -4 2 -8t-3 -8v-3q-3 -14 -7.5 -26.5t-9.5 -25.5t-9 -25.5t-8 -26.5l-2 -4q0 -2 -2 -6q-1 -1 -1 -5v-8q0 -6 -6 -6q-12 -1 -24 7l-5 3l-15 6q-4 2 -8 3.5t-8 3.5q-5 3 -4.5 7t2.5 9q0 6 2.5 12.5t4.5 11.5
q2 6 4.5 12.5t4.5 12.5q5 14 11 26.5t8 26.5q2 5 8 8q5 6 8 13t13 6zM126 701q3 1 8.5 2t10 1t8.5 -2.5t4 -8.5q1 -10 1 -20.5t-2 -20.5q0 -5 -2 -15q0 -8 0.5 -15t0.5 -15q0 -12 0.5 -24t-0.5 -25q-1 -11 -1 -23v-23q0 -5 -0.5 -10.5t-1.5 -11.5v-24q0 -11 -0.5 -21.5
t-0.5 -21.5q0 -9 1.5 -18t2.5 -18v-37q1 -8 1.5 -14.5t0.5 -13.5v-90q0 -30 -0.5 -59.5t0.5 -59.5q0 -3 0.5 -6t1.5 -7q1 -3 1 -6.5t1 -7.5q0 -5 0.5 -9t0.5 -9q1 -5 1 -9.5v-9.5q0 -4 0.5 -8t0.5 -8q2 -8 2 -13q3 -4 1 -11q-3 -11 -15.5 -16t-23.5 -4q-3 0 -6 0.5t-5 0.5
h-1q-2 1 -6 1h-7q-12 -2 -18 1q-2 0 -3 -0.5t-3 -0.5q-5 0 -9 1.5t-4 7.5q0 1 -1 1q-2 4 0 9q0 3 2 7q0 2 0.5 3t0.5 2q0 5 1 7q0 5 -0.5 9.5t0.5 9.5q3 18 3 37q1 19 1 38v39q-1 39 0 79q0 9 0.5 18.5t1.5 18.5q1 10 0.5 19.5t-0.5 19.5q1 5 1 11v11t-1 10.5t-1 10.5
q-2 12 -1.5 24t0.5 24q1 6 1 12.5t1 12.5t2 11.5t2 11.5q1 23 0 47l-2 48t-3 47q-1 13 -3 24.5t-5 23.5q-2 5 -2 11t-1 11q-1 2 -1 3t-1 3q0 4 -1 4q-4 3 -2.5 6t5.5 5q1 1 2.5 1.5t3.5 1.5q1 2 3 3t3 2q5 2 11 1.5t11 -0.5h10q1 -1 3 -1t3.5 0.5t3.5 0.5z" />
    <glyph glyph-name="Icircumflex" unicode="&#xce;" horiz-adv-x="220" 
d="M103 913q3 0 5 -3q3 0 5 -3l4 -4q2 -3 4.5 -5.5l4.5 -4.5t3.5 -4.5t3.5 -4.5q3 -2 3 -4l4 -5q4 -3 10 -11l18 -24q7 -10 13 -20t10 -21l7 -11q2 -5 0.5 -9t-3.5 -8l-9 -15q-5 -10 -11 -15q-5 -3 -9 3q-2 3 -3 6t-3 6q-1 3 -5 7l-2 2l-2 1q-5 5 -8 10.5t-7 11.5
q-4 7 -8.5 13t-9.5 13t-9.5 13t-9.5 13l-2 3l-1 -1q-2 -3 -4 -5.5t-4 -5.5t-2.5 -6.5t-2.5 -6.5q-5 -14 -10 -27t-13 -25l-2 -2l-1 -1l-3 -9q-2 -4 -4 -7.5t-7 -4.5q-2 0 -3.5 1t-3.5 2l-9 6q-5 3 -9.5 4.5t-8.5 5.5l-1 2q-4 2 -4 6q-1 5 1.5 9.5t4.5 9.5q5 10 9.5 20.5
t10.5 20.5q13 21 21 40q2 5 4 9.5t5 9.5l4 7q2 5 5.5 9t5.5 8q1 3 5 3h13t12 1zM121 699q3 1 8.5 2t10 1t8.5 -2.5t4 -8.5q1 -10 1 -20.5t-2 -20.5q0 -5 -2 -15q0 -8 0.5 -15t0.5 -15q0 -12 0.5 -24t-0.5 -25q-1 -11 -1 -23v-23q0 -5 -0.5 -10.5t-1.5 -11.5v-24
q0 -11 -0.5 -21.5t-0.5 -21.5q0 -9 1.5 -18t2.5 -18v-37q1 -8 1.5 -14.5t0.5 -13.5v-90q0 -30 -0.5 -59.5t0.5 -59.5q0 -3 0.5 -6t1.5 -7q1 -3 1 -6.5t1 -7.5q0 -5 0.5 -9t0.5 -9q1 -5 1 -9.5v-9.5q0 -4 0.5 -8t0.5 -8q2 -8 2 -13q3 -4 1 -11q-3 -11 -15.5 -16t-23.5 -4
q-3 0 -6 0.5t-5 0.5h-1q-2 1 -6 1h-7q-12 -2 -18 1q-2 0 -3 -0.5t-3 -0.5q-5 0 -9 1.5t-4 7.5q0 1 -1 1q-2 4 0 9q0 3 2 7q0 2 0.5 3t0.5 2q0 5 1 7q0 5 -0.5 9.5t0.5 9.5q3 18 3 37q1 19 1 38v39q-1 39 0 79q0 9 0.5 18.5t1.5 18.5q1 10 0.5 19.5t-0.5 19.5q1 5 1 11v11
t-1 10.5t-1 10.5q-2 12 -1.5 24t0.5 24q1 6 1 12.5t1 12.5t2 11.5t2 11.5q1 23 0 47l-2 48t-3 47q-1 13 -3 24.5t-5 23.5q-2 5 -2 11t-1 11q-1 2 -1 3t-1 3q0 4 -1 4q-4 3 -2.5 6t5.5 5q1 1 2.5 1.5t3.5 1.5q1 2 3 3t3 2q5 2 11 1.5t11 -0.5h10q1 -1 3 -1t3.5 0.5t3.5 0.5z
" />
    <glyph glyph-name="Idieresis" unicode="&#xcf;" horiz-adv-x="220" 
d="M24 855q4 0 7.5 -1t7.5 -2l3 -1h8q10 0 15 -1t9 -2t8 -4q8 -7 10 -21q1 -7 0 -13t-1 -13q0 -3 -0.5 -9.5t-0.5 -5.5q-1 -11 -5 -19.5t-15 -11.5q-10 -2 -15 -2q-6 -3 -14 -1.5t-13 3.5l-12 4q-10 4 -13 16q-2 7 -1.5 14t0.5 14v13.5t2 13.5q2 8 4.5 15t9.5 12q4 3 11 3z
M185 852q4 0 8 -1.5t6 -5.5l4 -4q8 -9 9 -20.5t2 -22.5q1 -9 0.5 -20.5t-8.5 -18.5q-6 -4 -11 -4l-6 1q-5 -2 -10 -2.5t-10 -0.5h-12h-7t-7 2q-9 6 -10.5 16t-0.5 20v7v4v9.5t-1 8.5v8v2q-1 5 -0.5 10t5.5 8q4 2 6 2l1 1q12 5 27 2h6q2 0 4.5 0.5t4.5 0.5v-2zM119 699
q3 1 8.5 2t10 1t8.5 -2.5t4 -8.5q1 -10 1 -20.5t-2 -20.5q0 -5 -2 -15q0 -8 0.5 -15t0.5 -15q0 -12 0.5 -24t-0.5 -25q-1 -11 -1 -23v-23q0 -5 -0.5 -10.5t-1.5 -11.5v-24q0 -11 -0.5 -21.5t-0.5 -21.5q0 -9 1.5 -18t2.5 -18v-37q1 -8 1.5 -14.5t0.5 -13.5v-90
q0 -30 -0.5 -59.5t0.5 -59.5q0 -3 0.5 -6t1.5 -7q1 -3 1 -6.5t1 -7.5q0 -5 0.5 -9t0.5 -9q1 -5 1 -9.5v-9.5q0 -4 0.5 -8t0.5 -8q2 -8 2 -13q3 -4 1 -11q-3 -11 -15.5 -16t-23.5 -4q-3 0 -6 0.5t-5 0.5h-1q-2 1 -6 1h-7q-12 -2 -18 1q-2 0 -3 -0.5t-3 -0.5q-5 0 -9 1.5
t-4 7.5q0 1 -1 1q-2 4 0 9q0 3 2 7q0 2 0.5 3t0.5 2q0 5 1 7q0 5 -0.5 9.5t0.5 9.5q3 18 3 37q1 19 1 38v39q-1 39 0 79q0 9 0.5 18.5t1.5 18.5q1 10 0.5 19.5t-0.5 19.5q1 5 1 11v11t-1 10.5t-1 10.5q-2 12 -1.5 24t0.5 24q1 6 1 12.5t1 12.5t2 11.5t2 11.5q1 23 0 47
l-2 48t-3 47q-1 13 -3 24.5t-5 23.5q-2 5 -2 11t-1 11q-1 2 -1 3t-1 3q0 4 -1 4q-4 3 -2.5 6t5.5 5q1 1 2.5 1.5t3.5 1.5q1 2 3 3t3 2q5 2 11 1.5t11 -0.5h10q1 -1 3 -1t3.5 0.5t3.5 0.5z" />
    </font>
</defs>
</svg>
